<?xml version="1.0" standalone="no"?>
<!DOCTYPE svg PUBLIC "-//W3C//DTD SVG 1.1//EN" "http://www.w3.org/Graphics/SVG/1.1/DTD/svg11.dtd" >
<svg xmlns="http://www.w3.org/2000/svg" xmlns:xlink="http://www.w3.org/1999/xlink" version="1.1">
<metadata></metadata>
<defs>
<font id="houschkaroundedaltregular_6" horiz-adv-x="1228" >
<font-face units-per-em="2048" ascent="1538" descent="-510" />
<missing-glyph horiz-adv-x="520" />
<glyph unicode="&#xfb01;" horiz-adv-x="1013" d="M37 866q0 23 17.5 40.5t41.5 17.5h99v139q0 350 315 350q131 0 235 -41q92 -39 93 -94q0 -61 -70 -61q-23 0 -86 30q-74 37 -152 37q-100 0 -143 -61.5t-43 -180.5v-118h447q74 0 73 -72v-801q0 -29 -22.5 -50t-50.5 -21q-33 0 -54.5 21.5t-21.5 49.5v754h-371v-754 q0 -29 -21.5 -50t-52 -21t-53 21.5t-22.5 49.5v754h-99q-25 0 -42 17.5t-17 43.5z" />
<glyph unicode="&#xfb02;" horiz-adv-x="1015" d="M37 866q0 23 17.5 40.5t41.5 17.5h99v141q0 156 74.5 252t246.5 96q139 0 236 -43q70 -29 92 -66.5t22 -105.5v-1147q0 -29 -22.5 -50t-50.5 -21q-31 0 -53.5 21.5t-22.5 49.5v1145q0 35 -51.5 62.5t-130.5 27.5q-102 0 -146.5 -61.5t-44.5 -180.5v-120h248 q25 0 41 -17.5t16 -40.5q0 -27 -16.5 -44t-40.5 -17h-248v-754q0 -29 -21.5 -50t-52 -21t-53 21.5t-22.5 49.5v754h-99q-25 0 -42 17.5t-17 43.5z" />
<glyph unicode="&#xfb03;" horiz-adv-x="1558" d="M37 866q0 23 17.5 40.5t41.5 17.5h99v153q0 143 64.5 233.5t205.5 90.5q98 0 180 -41q78 -37 78 -88q0 -25 -14.5 -41.5t-34.5 -16.5q-10 0 -64 29q-47 25 -110 25q-156 0 -156 -201v-143h397v139q0 350 316 350q127 0 235 -45q92 -35 92 -90q0 -61 -69 -61q-14 0 -84 32 q-74 37 -154 37q-100 0 -143 -62.5t-43 -181.5v-118h444q37 0 56.5 -19.5t19.5 -52.5v-801q0 -29 -22.5 -50t-53 -21t-52 21.5t-21.5 49.5v754h-371v-754q0 -29 -22.5 -50t-53.5 -21t-52.5 21.5t-21.5 49.5v754h-397v-754q0 -29 -21.5 -50t-52 -21t-53 21.5t-22.5 49.5v754 h-99q-25 0 -42 17.5t-17 43.5z" />
<glyph unicode="&#xfb04;" horiz-adv-x="1562" d="M37 866q0 23 17.5 40.5t41.5 17.5h99v153q0 143 64.5 233.5t205.5 90.5q98 0 180 -41q78 -37 78 -88q0 -25 -14.5 -41.5t-34.5 -16.5q-10 0 -64 29q-47 25 -110 25q-156 0 -156 -201v-143h397v141q0 348 316 348q131 0 231 -43q72 -31 98.5 -68.5t26.5 -103.5v-1147 q0 -29 -21.5 -50t-52 -21t-53 21.5t-22.5 49.5v1145q0 35 -52.5 62.5t-132.5 27.5q-188 0 -188 -242v-120h235q23 0 40.5 -17.5t17.5 -40.5q0 -27 -17.5 -44t-40.5 -17h-235v-754q0 -29 -22.5 -50t-53.5 -21t-52.5 21.5t-21.5 49.5v754h-397v-754q0 -29 -21.5 -50t-52 -21 t-53 21.5t-22.5 49.5v754h-99q-25 0 -42 17.5t-17 43.5z" />
<glyph horiz-adv-x="0" />
<glyph unicode="&#xd;" horiz-adv-x="681" />
<glyph unicode=" "  horiz-adv-x="520" />
<glyph unicode="&#x09;" horiz-adv-x="520" />
<glyph unicode="&#xa0;" horiz-adv-x="520" />
<glyph unicode="!" horiz-adv-x="497" d="M145 1233q0 180 104.5 180t104.5 -180q0 -29 -2 -66t-6 -80t-6 -61l-39 -586q-4 -61 -51 -61t-51 61l-41 586q-12 178 -13 207zM156 76q0 39 26.5 66.5t67.5 27.5q39 0 65.5 -26.5t26.5 -67.5t-26.5 -67.5t-65.5 -26.5q-41 0 -67.5 27.5t-26.5 66.5z" />
<glyph unicode="&#x22;" horiz-adv-x="581" d="M80 1339q0 76 71.5 76t71.5 -76q0 -31 -2 -69l-16 -236q-6 -61 -53.5 -61t-53.5 61l-16 236q-2 39 -2 69zM358 1339q0 76 72 76t72 -76q0 -31 -2 -69l-17 -236q-6 -61 -53 -61t-53 61l-17 236q-2 39 -2 69z" />
<glyph unicode="#" horiz-adv-x="1392" d="M0 309.5q0 24.5 17.5 42t41.5 17.5h283l78 370h-262q-25 0 -42.5 17.5t-17.5 42t17.5 43t42.5 18.5h286l78 363q4 23 25.5 36t46.5 9q23 -6 36 -26.5t9 -43.5l-72 -338h383l76 363q4 23 26.5 36t45.5 9q25 -6 38 -26.5t9 -43.5l-72 -338h260q25 0 42.5 -18.5t17.5 -43 t-17.5 -42t-42.5 -17.5h-286l-76 -370h264q23 0 40 -17.5t17 -42t-17.5 -43t-39.5 -18.5h-291l-76 -363q-14 -55 -71 -45q-23 4 -36 24.5t-9 45.5l69 338h-381l-78 -363q-4 -25 -24.5 -37t-45 -8t-37.5 24.5t-9 45.5l71 338h-258q-25 0 -42 18.5t-17 43zM465 369h383l76 370 h-381z" />
<glyph unicode="$" d="M156 160q0 33 22.5 54.5t52.5 21.5q16 0 30.5 -9.5t44.5 -29t63 -35.5q106 -49 233 -49q150 0 224.5 66.5t74.5 174.5q0 125 -139 189q-49 25 -182.5 64.5t-208.5 74.5q-209 96 -209 297q0 152 107 241t304 99v125q0 16 12.5 28.5t31 12.5t30.5 -12.5t12 -28.5v-123 q143 -6 271 -57q84 -37 84 -88q0 -29 -19.5 -49.5t-52.5 -20.5q-14 0 -29.5 6t-42 18.5t-49.5 20.5q-113 39 -198 39q-299 0 -299 -211q0 -115 159 -182q47 -18 197.5 -63.5t226.5 -90.5q160 -100 160 -274q0 -170 -109.5 -270.5t-298.5 -114.5v-119q0 -16 -12 -28.5 t-30.5 -12.5t-31 12t-12.5 29v115q-172 4 -350 96q-68 35 -67 84z" />
<glyph unicode="%" horiz-adv-x="1343" d="M51 1098q0 129 92.5 221t221.5 92q127 0 220 -92t93 -221t-93 -221.5t-220 -92.5q-129 0 -221.5 91.5t-92.5 222.5zM137 1098q0 -94 66.5 -161t161 -67t161 67t66.5 161t-66.5 160.5t-161 66.5t-161 -66.5t-66.5 -160.5zM195 29q0 16 10 32l852 1323q16 29 43 29 q20 0 34.5 -14.5t14.5 -34.5q0 -17 -10 -31l-850 -1327q-20 -27 -45 -26q-20 0 -34.5 14t-14.5 35zM666 293q0 129 93 221t220 92q129 0 221 -92t92 -221t-92 -221t-221 -92t-221 92t-92 221zM752 293q0 -94 66.5 -160.5t162.5 -66.5q94 0 159.5 66.5t65.5 160.5 t-65.5 160.5t-159.5 66.5t-161.5 -66.5t-67.5 -160.5z" />
<glyph unicode="&#x26;" horiz-adv-x="1343" d="M88 387q0 131 81 221t224 162q-88 170 -88 299q0 147 88 233.5t240 86.5q143 0 224 -79t81 -208q0 -70 -27.5 -127t-86 -104.5t-105.5 -76t-129 -71.5q135 -231 336 -406q68 106 88 308q2 27 22.5 42t44.5 15q33 0 54.5 -22.5t21.5 -53.5q0 -225 -104 -373 q113 -81 219 -110q47 -10 47 -64q0 -35 -21.5 -57t-56.5 -22q-113 0 -293 135q-154 -135 -383 -135q-215 0 -346 108.5t-131 298.5zM240 381q0 -135 91 -209t247 -74q154 1 258 101q-225 195 -381 454q-104 -57 -159.5 -119.5t-55.5 -152.5zM455 1069q0 -98 73 -233 q154 82 203 129q64 63 64 139q0 80 -42 124t-120 44q-82 0 -130 -56.5t-48 -146.5z" />
<glyph unicode="'" horiz-adv-x="303" d="M80 1339q0 76 71.5 76t71.5 -76q0 -31 -2 -69l-16 -236q-6 -61 -53.5 -61t-53.5 61l-16 236q-2 39 -2 69z" />
<glyph unicode="(" horiz-adv-x="544" d="M104 602q0 549 246 909q25 37 64 37q33 0 54 -21.5t21 -53.5q0 -27 -14 -56q-211 -352 -211 -815q0 -475 211 -817q14 -27 14 -55q0 -33 -21 -53.5t-54 -20.5q-37 0 -64 35q-246 367 -246 911z" />
<glyph unicode=")" horiz-adv-x="544" d="M53 -270q0 31 17 55q209 344 209 817q0 467 -209 815q-16 27 -17 56q0 33 21.5 54t54.5 21q37 0 66 -37q246 -360 245 -909q0 -545 -245 -911q-27 -35 -66 -35q-33 0 -54.5 20.5t-21.5 53.5z" />
<glyph unicode="*" horiz-adv-x="866" d="M113 1239q16 47 71 29q18 -6 78 -29l152 -59l-11 163q-4 78 -4 82q0 59 52 60q49 0 49 -60q0 -4 -4 -82l-9 -163l152 59q53 23 76 29q57 16 71 -29q18 -47 -41 -68l-77 -20l-158 -41l102 -127l54 -63q35 -49 -4 -78q-41 -29 -76 18q-8 10 -21.5 31.5t-25.5 38.5l-88 135 l-91 -135q-33 -55 -45 -70q-37 -45 -75 -18q-39 29 -4 78q12 16 51 63l102 127l-156 41q-12 4 -39.5 10t-39.5 10q-57 18 -41 68z" />
<glyph unicode="+" horiz-adv-x="1148" d="M72 723q0 29 20.5 50.5t48.5 21.5h361v360q0 29 21.5 49.5t50 20.5t50 -20.5t21.5 -49.5v-360h363q27 0 47 -21.5t20 -50.5t-20.5 -50.5t-46.5 -21.5h-363v-362q0 -27 -21.5 -47.5t-50 -20.5t-50 20.5t-21.5 47.5v362h-361q-29 0 -49 21.5t-20 50.5z" />
<glyph unicode="," horiz-adv-x="401" d="M100 78q0 39 25 64.5t72 25.5q55 0 84.5 -37t29.5 -100q0 -88 -62.5 -153.5t-113.5 -65.5q-31 -1 -31 28q0 18 35 49t35 64q0 23 -37 51.5t-37 73.5z" />
<glyph unicode="-" horiz-adv-x="1024" d="M174 594q0 29 20.5 49.5t49.5 20.5h536q29 0 49.5 -20.5t20.5 -49.5t-20.5 -50.5t-49.5 -21.5h-536q-29 0 -49.5 21.5t-20.5 50.5z" />
<glyph unicode="." horiz-adv-x="376" d="M100 76q0 39 27 65.5t68 26.5t67.5 -26.5t26.5 -65.5t-28 -66.5t-66.5 -27.5t-66.5 27.5t-28 66.5z" />
<glyph unicode="/" horiz-adv-x="763" d="M-27 51q1 20 15 49l649 1266q25 49 76 49q29 0 52 -21.5t23 -50.5q0 -23 -14 -51l-649 -1263q-27 -49 -76 -49q-29 0 -52.5 21.5t-23.5 49.5z" />
<glyph unicode="0" d="M96 696.5q0 352.5 133 534.5t385 182t385.5 -182t133.5 -534.5t-133.5 -534.5t-385.5 -182t-385 182t-133 534.5zM258 696q0 -293 94 -430q88 -137 262 -137q170 0 263 137q92 141 92 430q0 291 -92 432q-88 137 -263 138q-172 0 -262 -138q-94 -145 -94 -432z" />
<glyph unicode="1" d="M219 1204q0 49 51 70l332 129q31 10 57 10q72 0 72 -80v-1192h254q27 0 47.5 -20.5t20.5 -48.5q0 -31 -19.5 -51.5t-48.5 -20.5h-688q-29 0 -49.5 20.5t-20.5 51.5q0 29 20.5 49t49.5 20h270v1096l-245 -96q-14 -6 -33 -6q-29 0 -49.5 18t-20.5 51z" />
<glyph unicode="2" d="M160 76q0 143 30.5 229t104.5 162q76 78 240.5 168t218.5 131q129 98 129 240q0 109 -68 182q-78 88 -225 88q-102 0 -201 -47q-27 -14 -56.5 -33.5t-47 -29t-33.5 -9.5q-31 0 -51.5 19.5t-20.5 52.5t44 68.5t100 60.5q129 55 278 55q211 0 338 -137q98 -109 98 -266 q0 -195 -170 -334q-70 -55 -225.5 -141t-220.5 -148q-49 -45 -67.5 -99.5t-18.5 -146.5h657q29 0 49.5 -20.5t20.5 -48.5q0 -31 -20.5 -51.5t-49.5 -20.5h-764q-31 0 -50 20.5t-19 55.5z" />
<glyph unicode="3" d="M154 119q0 29 20.5 50t50.5 21q14 0 32.5 -7t44.5 -20t48 -22q80 -31 178 -30q150 0 236 74.5t86 199.5q0 180 -178 244q-66 23 -164 22q-78 0 -78 68q0 25 17.5 44t50.5 19q102 0 170 31q137 59 137 213q0 104 -71.5 176t-192.5 72q-100 0 -179 -41q-20 -10 -45.5 -24.5 t-40 -20.5t-28.5 -6q-31 0 -51.5 20.5t-20.5 48.5q0 33 25.5 55.5t74.5 45.5q123 61 275 61q182 0 292.5 -105.5t110.5 -260.5q0 -113 -57 -196t-168 -124q133 -39 204 -130t71 -224q0 -176 -126 -284.5t-337 -108.5q-127 0 -242 28q-145 43 -145 111z" />
<glyph unicode="4" d="M84 387q0 27 16 49l650 922q41 55 88 55q35 0 54 -22.5t19 -55.5v-880h166q27 0 45.5 -19.5t18.5 -48.5t-18.5 -48.5t-45.5 -19.5h-166v-262q0 -33 -22.5 -55t-55 -22t-56 22.5t-23.5 54.5v262h-604q-27 0 -46.5 19.5t-19.5 48.5zM285 455h469v675z" />
<glyph unicode="5" d="M164 164q0 29 21.5 49t50.5 20q14 0 29.5 -9t38 -27.5t40.5 -28.5q96 -57 236 -57q143 0 234 92t91 235q0 147 -82 236.5t-215 89.5q-104 0 -200 -68q-25 -16 -57 -43.5t-49 -38t-34 -10.5q-63 0 -63 64q0 10 4 67l43 592q2 29 21.5 48.5t48.5 19.5h632q31 0 50.5 -20.5 t19.5 -51.5q0 -29 -19.5 -49.5t-50.5 -20.5h-559l-37 -454q117 96 271 96q203 0 318.5 -126t115.5 -329q0 -201 -133 -330.5t-350 -129.5q-197 0 -326 77q-90 56 -90 107z" />
<glyph unicode="6" d="M139 633q0 96 10.5 189t46 205t93 194t160 137t239.5 55q162 0 260 -43q109 -43 109 -98q0 -31 -20.5 -52.5t-53.5 -21.5q-14 0 -33.5 7t-48.5 20.5t-55 21.5q-78 25 -160 25q-246 0 -338 -291q-39 -125 -43 -301q117 182 342 182q201 0 318.5 -115.5t117.5 -318.5 q0 -199 -126 -323.5t-328 -124.5q-242 0 -366 172t-124 481zM301 518q27 -399 328 -399q135 0 216 86t81 219q0 141 -78 221t-217 80q-215 0 -330 -207z" />
<glyph unicode="7" d="M150 1087v238q0 29 20 49.5t51 20.5h791q29 0 49 -21.5t20 -50.5q0 -14 -18 -59l-576 -1235q-12 -31 -42.5 -42.5t-61.5 -0.5q-35 14 -47 44.5t2 63.5l469 981q37 80 96 178h-610v-166q0 -29 -21.5 -49t-50.5 -20q-31 0 -51 20.5t-20 48.5z" />
<glyph unicode="8" d="M123 356q0 78 30.5 142.5t88 110.5t106.5 74t117 54q-63 29 -104.5 54.5t-88.5 65.5t-71.5 93.5t-24.5 118.5q0 158 117 251t321.5 93t322.5 -94t118 -250q0 -66 -24.5 -120t-72 -94t-89.5 -64.5t-103 -53.5q78 -35 126 -62.5t104.5 -73.5t84 -106.5t27.5 -136.5 q0 -176 -131 -277t-361 -101q-231 0 -362 100t-131 276zM285 371q0 -119 84 -189.5t247.5 -70.5t247.5 69.5t84 188.5q0 106 -91 173.5t-251 123.5q-322 -111 -321 -295zM334 1069q0 -51 25.5 -94t72.5 -75t89 -51.5t102 -41.5q274 108 274 258q0 104 -72.5 163.5 t-208.5 59.5q-137 0 -209.5 -57t-72.5 -162z" />
<glyph unicode="9" d="M141 965q0 199 126 323.5t329 124.5q242 0 366.5 -173t124.5 -480q0 -96 -11 -189.5t-47 -205t-93 -193.5t-160.5 -137t-238.5 -55q-160 0 -261 40q-109 43 -108 101q0 31 21.5 52.5t52.5 21.5q18 0 64 -20.5t75 -29.5q74 -25 160 -24q240 0 336 291q39 125 43 301 q-117 -182 -342 -183q-201 0 -319 116t-118 319zM301 969q0 -141 78 -221t215 -80q215 -1 330 206q-27 399 -328 400q-133 0 -214 -87t-81 -218z" />
<glyph unicode=":" horiz-adv-x="393" d="M104 76q0 39 27 65.5t68 26.5q39 0 66.5 -26.5t27.5 -65.5t-27.5 -66.5t-66.5 -27.5t-67 27.5t-28 66.5zM104 850q0 39 28 65.5t67 26.5t66.5 -26.5t27.5 -65.5t-27.5 -66.5t-66.5 -27.5t-67 27.5t-28 66.5z" />
<glyph unicode=";" horiz-adv-x="393" d="M104 78q0 37 26 63.5t73 26.5q55 0 84.5 -37t29.5 -100q0 -88 -63.5 -153.5t-114.5 -65.5q-28 -1 -28 28q0 18 33.5 49t33.5 64q0 23 -37 51.5t-37 73.5zM111 850q0 39 27.5 65.5t68.5 26.5q39 0 65.5 -26.5t26.5 -65.5t-26.5 -66.5t-65.5 -27.5q-41 0 -68.5 27.5 t-27.5 66.5z" />
<glyph unicode="&#x3c;" horiz-adv-x="1257" d="M88 723q0 84 92 119l846 368q25 10 43 11q33 0 55.5 -23.5t22.5 -56.5q0 -47 -51 -72l-820 -346l820 -346q51 -25 51 -72q0 -35 -23.5 -57.5t-54.5 -22.5q-18 0 -43 11l-846 368q-92 35 -92 119z" />
<glyph unicode="=" horiz-adv-x="1146" d="M72 477q0 29 20.5 49.5t48.5 20.5h867q27 0 47 -20.5t20 -49.5q0 -31 -19 -51t-48 -20h-867q-29 0 -49 20t-20 51zM72 969q0 29 20.5 49t48.5 20h867q27 0 47 -20.5t20 -48.5q0 -31 -19 -51.5t-48 -20.5h-867q-29 0 -49 20.5t-20 51.5z" />
<glyph unicode="&#x3e;" horiz-adv-x="1261" d="M111 305q0 47 51 72l819 346l-819 346q-51 25 -51 72q0 33 22.5 56.5t54.5 23.5q18 -1 43 -11l846 -368q92 -39 92 -119t-92 -119l-846 -368q-25 -10 -43 -11q-31 0 -54 22.5t-23 57.5z" />
<glyph unicode="?" horiz-adv-x="1003" d="M51 1188q0 55 105 121q158 104 350 104q184 0 307 -110.5t123 -286.5q0 -113 -52.5 -185.5t-158.5 -148.5q-53 -39 -83 -64.5t-61.5 -71.5t-39.5 -97q-10 -53 -25.5 -75t-50.5 -22q-31 0 -51.5 22.5t-20.5 55.5q0 68 49 158q18 35 49 69.5t49.5 52t73 60.5t66.5 53 q102 86 102 193q0 119 -80.5 189.5t-205.5 70.5q-135 0 -256 -82q-16 -12 -37 -28.5t-31 -24.5t-25.5 -14.5t-29.5 -6.5q-27 0 -46.5 19.5t-19.5 48.5zM369 76q0 39 27.5 65.5t68.5 26.5q39 0 65.5 -26.5t26.5 -65.5t-26.5 -66.5t-65.5 -27.5q-41 0 -68.5 27.5t-27.5 66.5z " />
<glyph unicode="@" horiz-adv-x="1640" d="M100 694q0 295 224.5 508t537.5 213q293 0 485.5 -166t192.5 -442q0 -221 -100.5 -376t-259.5 -155q-113 0 -123 107q-92 -111 -269 -111q-113 0 -192 56q-98 61 -98 182q0 160 209 223q123 37 337 47q0 133 -63 197q-62 59 -168 59q-90 0 -158 -37q-16 -8 -33.5 -20 t-26.5 -17.5t-22 -5.5q-16 0 -28.5 11.5t-12.5 27.5q0 27 76 70q90 49 205 49q135 0 221 -78q94 -88 94 -256v-352q0 -82 68 -82q106 0 188 124t82 333q0 250 -169 396.5t-435 146.5q-283 0 -485.5 -192.5t-202.5 -461.5q0 -297 195.5 -479t500.5 -182q240 0 437 75 q78 31 79 31q14 0 25.5 -11t11.5 -26q0 -18 -19.5 -30.5t-70.5 -30.5q-209 -78 -463 -78q-338 0 -554 202t-216 531zM580 506q0 -74 61 -121q55 -43 150 -43q179 0 253 125v244q-213 -10 -323 -47q-141 -49 -141 -158z" />
<glyph unicode="A" horiz-adv-x="1263" d="M16 55q0 14 13 43l491 1231q29 84 113 84q86 0 115 -84l489 -1231q10 -20 10 -43q0 -35 -22.5 -55t-59.5 -20q-59 0 -82 59l-120 305h-662l-125 -305q-20 -59 -82 -59q-35 0 -56.5 21.5t-21.5 53.5zM342 477h578l-289 725z" />
<glyph unicode="B" horiz-adv-x="1296" d="M154 80v1235q0 33 23.5 56.5t58.5 23.5h421q176 0 300 -91.5t124 -263.5q0 -225 -182 -307v-4q145 -29 221 -123t76 -233q0 -184 -134 -278.5t-327 -94.5h-499q-35 0 -58.5 23.5t-23.5 56.5zM317 135h385q145 0 235.5 60.5t92.5 195.5q0 109 -75.5 180.5t-221.5 71.5 h-416v-508zM317 776h342q113 0 186 59.5t73 186.5q0 115 -82 177.5t-203 62.5h-316v-486z" />
<glyph unicode="C" horiz-adv-x="1349" d="M96 698q0 293 216 504t513 211q193 0 342 -67q99 -42 99 -103q0 -33 -21.5 -54.5t-54.5 -21.5q-14 0 -33.5 10.5t-52.5 27t-66 28.5q-94 33 -215 33q-227 0 -392 -167t-165 -401q0 -250 163 -410.5t394 -160.5q117 0 217 35q37 12 72 29.5t54.5 27.5t33.5 10 q31 0 53.5 -21.5t22.5 -53.5q0 -55 -100 -103q-152 -71 -346 -71h-5q-309 0 -519 199.5t-210 518.5z" />
<glyph unicode="D" horiz-adv-x="1511" d="M154 80v1235q0 33 23.5 56.5t58.5 23.5h436q385 0 581 -219q162 -179 162 -480q0 -367 -260 -555q-195 -141 -514 -141h-405q-35 0 -58.5 23.5t-23.5 56.5zM317 139h308q250 0 407 111q215 154 215 446q0 238 -131 385q-160 174 -471 174h-328v-1116z" />
<glyph unicode="E" horiz-adv-x="1232" d="M154 80v1235q0 33 23.5 56.5t58.5 23.5h862q29 0 49 -21.5t20 -50.5q0 -31 -20.5 -52.5t-48.5 -21.5h-781v-477h674q31 0 51.5 -21.5t20.5 -52.5q0 -29 -20.5 -50t-51.5 -21h-674v-482h781q29 0 49 -21.5t20 -51.5q0 -29 -20.5 -50.5t-48.5 -21.5h-862q-35 0 -58.5 23.5 t-23.5 56.5z" />
<glyph unicode="F" horiz-adv-x="1146" d="M154 59v1256q0 33 24.5 56.5t57.5 23.5h798q29 0 50.5 -21.5t21.5 -50.5q0 -31 -21.5 -52.5t-50.5 -21.5h-717v-477h617q29 0 50.5 -22.5t21.5 -51t-21.5 -50t-50.5 -21.5h-617v-568q0 -33 -24.5 -56t-57 -23t-57 23.5t-24.5 55.5z" />
<glyph unicode="G" horiz-adv-x="1519" d="M96 698q0 295 214 505t513 210q178 0 342 -67q100 -41 101 -103q0 -33 -22.5 -54.5t-53.5 -21.5q-18 0 -37.5 9.5t-55.5 27t-77 31.5q-88 31 -199 31q-229 0 -392 -168t-163 -400q0 -258 159 -415.5t396 -157.5q221 0 389 123v299h-376q-29 0 -49.5 21.5t-20.5 52.5 q0 29 20.5 50t49.5 21h460q76 0 76 -80v-553q0 -35 -21.5 -57t-58.5 -22t-58.5 22.5t-21.5 56.5v33q-167 -112 -391 -112h-4q-309 0 -514 191t-205 527z" />
<glyph unicode="H" horiz-adv-x="1470" d="M154 59v1274q0 33 24.5 56.5t57 23.5t57 -23.5t24.5 -56.5v-561h838v561q0 33 23.5 56.5t58.5 23.5q33 0 57.5 -23.5t24.5 -56.5v-1274q0 -33 -24.5 -56t-57.5 -23q-35 0 -58.5 23.5t-23.5 55.5v568h-838v-568q0 -33 -24.5 -56t-57 -23t-57 23t-24.5 56z" />
<glyph unicode="I" horiz-adv-x="471" d="M154 59v1274q0 33 24.5 56.5t57 23.5t57 -23.5t24.5 -56.5v-1274q0 -33 -24.5 -56t-57 -23t-57 23t-24.5 56z" />
<glyph unicode="J" horiz-adv-x="1050" d="M20 168q0 33 21.5 54.5t54.5 21.5q27 0 56 -25q106 -94 235 -94q160 0 256 96t96 293v819q0 33 24.5 56.5t57.5 23.5q35 0 58.5 -23.5t23.5 -56.5v-821q0 -266 -149 -403q-143 -129 -365 -129q-190 0 -334 118q-35 31 -35 70z" />
<glyph unicode="K" horiz-adv-x="1214" d="M154 59v1274q0 33 24.5 56.5t57 23.5t57 -23.5t24.5 -56.5v-608l656 661q27 27 61 27q31 0 53.5 -23.5t22.5 -56.5q0 -30 -23 -53l-503 -496l563 -678q14 -20 14 -45q0 -33 -22.5 -57t-57.5 -24q-43 0 -75 43l-533 647l-156 -152v-459q0 -33 -24.5 -56t-57 -23t-57 23.5 t-24.5 55.5z" />
<glyph unicode="L" horiz-adv-x="1091" d="M154 80v1253q0 33 23.5 56.5t58.5 23.5q33 0 57 -23.5t24 -56.5v-1188h668q29 0 49.5 -21.5t20.5 -51.5q0 -29 -20.5 -50.5t-49.5 -21.5h-749q-35 0 -58.5 23.5t-23.5 56.5z" />
<glyph unicode="M" horiz-adv-x="1703" d="M154 57v1256q0 43 27.5 71.5t72.5 28.5q57 0 90 -53l508 -838l508 838q33 53 90 53q45 0 72.5 -28.5t27.5 -71.5v-1256q0 -33 -21.5 -55t-55.5 -22q-37 0 -58.5 22.5t-21.5 54.5v1053l-461 -745q-31 -51 -80 -51l-1 -1q-48 0 -79 52l-461 745v-1053q0 -33 -21.5 -55 t-56.5 -22q-37 0 -58 22.5t-21 54.5z" />
<glyph unicode="N" horiz-adv-x="1515" d="M154 53v1272q0 35 26.5 61.5t65.5 26.5q47 0 82 -45l876 -1102v1071q0 31 23.5 53.5t56.5 22.5t55.5 -22.5t22.5 -53.5v-1269q0 -37 -27.5 -62.5t-66.5 -25.5q-43 0 -82 45l-875 1101v-1073q0 -31 -23.5 -52t-56 -21t-55 21.5t-22.5 51.5z" />
<glyph unicode="O" horiz-adv-x="1650" d="M96 694q0 303 214 511t515 208t515 -208t214 -511q0 -301 -214 -507.5t-515 -206.5t-515 206.5t-214 507.5zM270 694q0 -236 161 -399.5t394.5 -163.5t395 165t161.5 398.5t-161.5 399.5t-395 166t-394.5 -166t-161 -400z" />
<glyph unicode="P" horiz-adv-x="1282" d="M154 59v1256q0 33 24.5 56.5t57.5 23.5h485q193 0 321 -99q164 -131 164 -360q0 -242 -176 -371q-121 -88 -330 -88h-383v-418q0 -33 -24.5 -56t-57 -23t-57 23.5t-24.5 55.5zM317 621h357q158 0 239 55q127 86 127 260q0 170 -118 252q-86 63 -226 63h-379v-630z" />
<glyph unicode="Q" horiz-adv-x="1650" d="M96 694q0 303 214 511t515 208t515 -209t214 -510q0 -268 -174 -464.5t-434 -239.5q10 -16 105 -45q150 -47 424 -119q57 -16 74.5 -21.5t37 -23t19.5 -45.5q0 -72 -95 -72q-18 0 -43.5 4t-61.5 13.5t-69.5 18.5t-85 25.5t-88.5 29t-100.5 35t-101 35.5t-109.5 39.5 t-109 39.5q-47 16 -47 57q0 16 6 29q-260 43 -433 238.5t-173 465.5zM268 694.5q0 -233.5 162 -398.5t395.5 -165t394 163.5t160.5 399.5q0 233 -160.5 399.5t-394 166.5t-395.5 -166t-162 -399.5z" />
<glyph unicode="R" horiz-adv-x="1331" d="M154 59v1256q0 33 23.5 56.5t58.5 23.5h489q221 0 340 -80q166 -109 166 -346q0 -213 -164 -334q-84 -61 -201 -82l342 -436q23 -27 23 -56q0 -33 -24.5 -57t-59.5 -24q-41 0 -70 38l-399 527h-361v-486q0 -33 -24.5 -56t-56.5 -23q-35 0 -58.5 23.5t-23.5 55.5zM317 682 h385q158 0 240 47q121 72 121 240t-117 237q-81 49 -239 49h-390v-573z" />
<glyph unicode="S" horiz-adv-x="1138" d="M88 172q0 35 22.5 57.5t57.5 22.5q14 0 30.5 -9.5t49.5 -29.5t69 -37q115 -55 246 -55q160 0 240 71.5t80 186.5q0 137 -176 213q-51 23 -187.5 63.5t-218.5 79.5q-207 102 -207 307q0 174 128 272.5t366 98.5q184 0 319 -59q94 -40 94 -97q0 -33 -21.5 -54t-55.5 -21 q-16 0 -36 8t-49.5 22.5t-54.5 22.5q-102 37 -204 37q-313 0 -314 -225q0 -133 201 -207q29 -10 182.5 -55.5t229.5 -88.5q180 -106 180 -303q0 -193 -136.5 -303t-359.5 -110q-217 0 -397 98q-78 43 -78 94z" />
<glyph unicode="T" horiz-adv-x="1155" d="M0 1323q0 29 20.5 50.5t51.5 21.5h1013q29 0 49.5 -21.5t20.5 -50.5q0 -31 -20.5 -52.5t-49.5 -21.5h-426v-1190q0 -33 -24.5 -56t-57 -23t-57 23.5t-24.5 55.5v1190h-424q-31 0 -51.5 21.5t-20.5 52.5z" />
<glyph unicode="U" horiz-adv-x="1478" d="M150 551v782q0 33 24.5 56.5t56.5 23.5q35 0 58.5 -23.5t23.5 -56.5v-762q0 -203 105 -319q112 -125 319 -125q211 0 324 125q104 117 104 319v762q0 33 23.5 56.5t58.5 23.5q33 0 57.5 -23.5t24.5 -56.5v-782q0 -248 -135 -395q-158 -176 -455 -176t-454 176 q-135 147 -135 395z" />
<glyph unicode="V" horiz-adv-x="1265" d="M14 1331q0 35 23.5 58.5t60.5 23.5q59 0 80 -57l453 -1159l454 1159q25 57 82 57q35 0 59.5 -22.5t24.5 -57.5q0 -10 -8 -35l-498 -1235q-33 -83 -114 -83h-2q-82 0 -115 83l-491 1233q-8 25 -9 35z" />
<glyph unicode="W" horiz-adv-x="2086" d="M14 1333q0 35 23.5 57.5t60.5 22.5q63 0 80 -61l385 -1155l391 1153q20 63 90 63q66 0 86 -65l396 -1151l381 1159q16 57 82 57q35 0 59.5 -21.5t24.5 -56.5q0 -14 -11 -39l-422 -1233q-25 -83 -112 -83h-2q-86 0 -115 83l-371 1041l-362 -1041q-29 -83 -113 -83h-2 q-88 0 -117 83l-423 1233q-8 18 -9 37z" />
<glyph unicode="X" horiz-adv-x="1269" d="M18 66q0 29 23 55l491 575l-485 576q-23 31 -22 55q0 35 28.5 60.5t65.5 25.5q43 0 76 -41l442 -545l440 545q35 41 76 41q35 0 64.5 -25.5t29.5 -60.5q0 -27 -24 -55l-482 -574l490 -577q20 -23 20 -55q0 -35 -27.5 -60.5t-64.5 -25.5q-43 0 -76 40l-446 549l-449 -549 q-32 -40 -75 -40h-2q-35 0 -64 24.5t-29 61.5z" />
<glyph unicode="Y" horiz-adv-x="1169" d="M8 1335q0 33 22.5 55.5t57.5 22.5q43 0 72 -41l424 -596l426 596q29 41 71 41q33 0 56.5 -22.5t23.5 -55.5q0 -28 -16 -57l-479 -666v-553q0 -33 -25 -56t-57.5 -23t-57 23.5t-24.5 55.5v553l-475 668q-18 29 -19 55z" />
<glyph unicode="Z" horiz-adv-x="1134" d="M16 1323q0 29 20.5 50.5t49.5 21.5h911q31 0 51.5 -21.5t20.5 -50.5q0 -27 -14 -47l-787 -1131h772q29 0 50.5 -22.5t21.5 -51t-21.5 -50t-50.5 -21.5h-921q-29 0 -50.5 21.5t-21.5 50.5q0 25 19 51l784 1126h-764q-29 0 -49.5 21.5t-20.5 52.5z" />
<glyph unicode="[" horiz-adv-x="671" d="M147 -254v1694q0 33 23.5 55.5t56.5 22.5h322q29 0 49 -20.5t20 -49.5t-20 -49.5t-49 -20.5h-244v-1571h244q29 0 49 -21.5t20 -49.5q0 -27 -20 -46.5t-49 -19.5h-322q-33 0 -56.5 21.5t-23.5 54.5z" />
<glyph unicode="\" horiz-adv-x="565" d="M53 1317q-8 29 7.5 57.5t43.5 36.5q31 8 57.5 -7t37.5 -46l358 -1282q8 -29 -7 -56.5t-44 -35.5q-31 -8 -57.5 6t-34.5 45z" />
<glyph unicode="]" horiz-adv-x="669" d="M53 -264q0 29 20.5 50t47.5 21h244v1571h-244q-29 0 -48.5 20.5t-19.5 49.5t20.5 49.5t47.5 20.5h323q33 0 55.5 -22.5t22.5 -55.5v-1694q0 -33 -22.5 -54.5t-55.5 -21.5h-323q-29 0 -48.5 19.5t-19.5 46.5z" />
<glyph unicode="^" horiz-adv-x="1019" d="M90 889q0 16 14 41l338 526q25 39 68 39t68 -39l337 -526q12 -23 13 -41q0 -29 -19.5 -47.5t-46.5 -18.5q-35 0 -57 31l-295 467l-297 -467q-23 -31 -55 -31q-29 0 -48.5 19.5t-19.5 46.5z" />
<glyph unicode="_" horiz-adv-x="991" d="M-59 -225q0 23 17 41t42 18h991q25 0 41.5 -17.5t16.5 -42t-16.5 -42t-41.5 -17.5h-991q-25 0 -42 17.5t-17 42.5z" />
<glyph unicode="`" horiz-adv-x="854" d="M283 1520q0 23 18 40t43 17q39 0 57 -43l158 -283q10 -25 10 -39q0 -20 -14 -34.5t-37 -14.5q-31 0 -53 37l-166 275q-16 27 -16 45z" />
<glyph unicode="a" horiz-adv-x="974" d="M88 252q0 170 188 242q115 45 414 67v29q0 117 -47 172q-51 59 -166 59q-94 0 -184 -35q-20 -8 -43 -19t-36 -16.5t-24 -5.5q-25 0 -41 17.5t-16 42.5q0 45 100 88q115 49 261 49q184 0 270 -98q78 -92 78 -252v-541q0 -29 -22.5 -50t-53.5 -21q-29 0 -51.5 19t-24.5 46 q-123 -65 -266 -65h-4q-135 0 -233.5 70.5t-98.5 201.5zM229 260q0 -80 69 -121t165 -41q113 0 227 60v288q-205 -8 -305 -36q-156 -39 -156 -150z" />
<glyph unicode="b" horiz-adv-x="1085" d="M147 86v1253q0 31 23 52.5t53.5 21.5t53 -21.5t22.5 -52.5v-454q113 57 254 57q199 0 321 -131q119 -129 119 -350q0 -190 -106 -316q-144 -165 -434 -165h-4q-127 0 -230 16q-72 14 -72 90zM299 113q106 -10 162 -11q205 0 305 125q74 90 74 234q0 174 -90 264 q-88 90 -226 90q-121 0 -225 -57v-645z" />
<glyph unicode="c" horiz-adv-x="964" d="M92 463q0 180 105 305q145 174 395 174q129 0 227 -49q70 -33 70 -80q0 -25 -17.5 -42t-44.5 -17q-12 0 -71 26q-76 35 -164 35q-164 0 -266 -119q-82 -94 -82 -233q0 -160 94 -260q94 -98 256 -99q100 0 168 29q14 6 28.5 14.5t23.5 11.5t20 3q25 0 42 -18.5t17 -43.5 q0 -47 -86 -82q-98 -38 -211 -38h-6q-238 0 -371 139q-127 133 -127 344z" />
<glyph unicode="d" horiz-adv-x="1069" d="M92 459q0 184 94 309q129 176 375 176q98 0 209 -37v432q0 31 21.5 52.5t54.5 21.5q31 0 52.5 -21.5t21.5 -52.5v-1259q0 -39 -24.5 -59.5t-59.5 -20.5h-213q-268 0 -410 141q-121 121 -121 318zM246 461q0 -143 82 -230q104 -106 309 -106h133v653q-100 37 -201 37 q-172 0 -262 -133q-61 -88 -61 -221z" />
<glyph unicode="e" horiz-adv-x="1073" d="M92 473q0 201 123 334q125 135 338 135q203 0 321 -129q113 -119 113 -301q0 -39 -21.5 -65.5t-58.5 -26.5h-659q12 -125 80 -205q96 -113 258 -113q127 0 221 50q70 36 84 36q25 0 41 -18t16 -43q0 -39 -76 -80q-127 -67 -287 -67h-5q-231 0 -367 151q-121 131 -121 342 zM248 528h594q-6 127 -76 203q-82 90 -213 90q-147 0 -231 -98q-64 -72 -74 -195z" />
<glyph unicode="f" horiz-adv-x="706" d="M37 866q0 23 17.5 40.5t41.5 17.5h99v166q0 323 274 323h2q111 0 195 -39q82 -37 82 -98q0 -25 -16.5 -42t-41.5 -17q-18 0 -75.5 30.5t-114.5 30.5q-86 0 -121 -47t-35 -152v-155h260q23 0 40.5 -17.5t17.5 -40.5q0 -27 -17.5 -44t-40.5 -17h-260v-754q0 -29 -21.5 -50 t-52 -21t-53 21.5t-22.5 49.5v754h-99q-25 0 -42 17.5t-17 43.5z" />
<glyph unicode="g" horiz-adv-x="1087" d="M92 465q0 217 119 350q111 127 299 127q152 0 278 -90v18q0 31 21.5 51.5t54.5 20.5q31 0 52.5 -20.5t21.5 -51.5v-903q0 -221 -115 -336q-111 -106 -311 -106q-143 0 -258 61q-102 56 -102 113q0 27 17 47.5t46 20.5q12 0 23.5 -4.5t19.5 -10.5t25.5 -20.5t31.5 -24.5 q84 -59 195 -59q145 0 213 78q66 74 65 219v125q-111 -88 -276 -88q-186 0 -299 127q-121 137 -121 356zM244 465q0 -170 78 -266q75 -93 204 -93q147 0 262 99v508q-131 106 -260 106q-131 0 -204 -94q-80 -98 -80 -260z" />
<glyph unicode="h" horiz-adv-x="1134" d="M147 51v1288q0 31 23 52.5t53.5 21.5t53 -21.5t22.5 -52.5v-571q92 174 324 174q172 0 268 -84q111 -98 110 -309v-498q0 -29 -22.5 -50t-53 -21t-52 21.5t-21.5 49.5v465q0 166 -76 236q-63 59 -182 59q-164 0 -242 -141q-53 -100 -53 -244v-375q0 -29 -22.5 -50 t-53 -21t-53.5 21t-23 50z" />
<glyph unicode="i" horiz-adv-x="446" d="M131 1366q0 37 26.5 63.5t63.5 26.5t63.5 -26.5t26.5 -63.5t-26.5 -63.5t-63.5 -26.5t-63.5 26.5t-26.5 63.5zM147 51v819q0 31 23 51.5t53.5 20.5t53 -20.5t22.5 -51.5v-819q0 -29 -22.5 -50t-53 -21t-53.5 21.5t-23 49.5z" />
<glyph unicode="j" horiz-adv-x="446" d="M-12 -412q0 25 14 38.5t45 35t53 53.5q47 66 47 269v886q0 31 23 52.5t53.5 21.5t53 -21.5t22.5 -52.5v-931q0 -215 -80 -326q-63 -88 -153 -88q-78 0 -78 63zM131 1366q0 37 26.5 63.5t63.5 26.5t63.5 -26.5t26.5 -63.5t-26.5 -63.5t-63.5 -26.5t-63.5 26.5t-26.5 63.5z " />
<glyph unicode="k" horiz-adv-x="954" d="M147 51v1286q0 31 23 52.5t53.5 21.5t53 -21.5t22.5 -52.5v-858l473 443q25 20 47 20q31 0 50.5 -20.5t19.5 -47.5q-1 -31 -21 -49l-331 -303l358 -420q20 -25 20 -51q0 -31 -21.5 -51t-51.5 -20q-33 0 -62 34l-348 416l-133 -123v-256q0 -29 -22.5 -50t-53 -21 t-53.5 21.5t-23 49.5z" />
<glyph unicode="l" horiz-adv-x="446" d="M147 51v1288q0 31 23 52.5t53.5 21.5t53 -21.5t22.5 -52.5v-1288q0 -29 -22.5 -50t-53 -21t-53.5 21t-23 50z" />
<glyph unicode="m" horiz-adv-x="1673" d="M147 51v817q0 31 23 52.5t53.5 21.5t53 -21.5t22.5 -52.5v-53q94 127 270 127q127 0 209 -61q68 -49 99 -131q41 90 122 143q78 49 191 49q162 0 252 -90q98 -94 98 -283v-518q0 -31 -22.5 -51t-53 -20t-53 20t-22.5 51v481q0 147 -62 216q-57 63 -168 63 q-125 0 -186 -98q-53 -90 -53 -254v-408q0 -31 -23 -51t-53.5 -20t-53 20t-22.5 51v481q0 147 -61 216q-57 63 -168 63q-125 0 -187 -98q-53 -90 -53 -234v-428q0 -31 -22.5 -51t-53 -20t-53.5 20t-23 51z" />
<glyph unicode="n" horiz-adv-x="1132" d="M147 51v817q0 31 23 52.5t53.5 21.5t53 -21.5t22.5 -52.5v-100q92 174 324 174q172 0 268 -84q111 -98 110 -309v-498q0 -29 -22.5 -50t-53 -21t-52 21.5t-21.5 49.5v465q0 166 -76 236q-63 59 -182 59q-164 0 -242 -141q-53 -100 -53 -244v-375q0 -29 -22.5 -50t-53 -21 t-53.5 21t-23 50z" />
<glyph unicode="o" horiz-adv-x="1163" d="M92 461q0 211 137 344q141 137 352.5 137t352.5 -137q139 -135 139 -344q0 -207 -139 -342q-139 -139 -352 -139t-353 139q-137 133 -137 342zM240 460.5q0 -147.5 92 -249.5q98 -109 250 -109q154 0 252 109q90 100 90 249.5t-90 250.5q-97 108 -249 108h-3 q-152 0 -250 -108q-92 -103 -92 -250.5z" />
<glyph unicode="p" horiz-adv-x="1075" d="M147 -408v1233q1 85 91 101q94 16 206 16q256 0 398 -133q141 -129 141 -346q0 -213 -115 -338q-137 -145 -354 -145q-127 0 -215 40v-428q0 -31 -22.5 -51t-53 -20t-53.5 20.5t-23 50.5zM299 145q86 -43 201 -43q147 0 241 95q92 92 93 266q0 160 -99 258 q-100 100 -276 100q-90 0 -160 -12v-664z" />
<glyph unicode="q" horiz-adv-x="1071" d="M92 459q0 193 109 321q143 162 426 162q131 0 217 -18q80 -17 80 -103v-1231q0 -31 -21.5 -52t-54.5 -21q-29 0 -51.5 21.5t-22.5 51.5v523q-92 -133 -268 -133q-174 0 -289 114q-125 129 -125 365zM324 190q76 -88 202 -88q248 0 248 340v365q-104 14 -158 14 q-207 0 -307 -129q-69 -87 -69 -225q0 -180 84 -277z" />
<glyph unicode="r" horiz-adv-x="772" d="M147 51v819q0 31 23 51.5t53.5 20.5t53 -20.5t22.5 -51.5v-77q72 149 260 149q102 0 170 -43q59 -37 59 -84q0 -31 -19 -50.5t-48 -19.5q-23 0 -77 30t-109 30q-104 0 -166 -82q-70 -94 -70 -270v-402q0 -29 -22.5 -50t-53 -21t-53.5 21.5t-23 49.5z" />
<glyph unicode="s" horiz-adv-x="825" d="M74 123q0 25 16 42t43 17q31 0 82 -30q88 -51 191 -52q192 0 192 139q0 54 -33 85.5t-98 60.5q-25 12 -103.5 40t-119.5 46q-152 70 -152 223q0 117 88 183.5t250 66.5q127 0 213 -31q86 -29 86 -82q0 -25 -16.5 -41t-41 -16t-96 22.5t-139.5 22.5q-188 0 -188 -125 q0 -47 28.5 -73.5t83.5 -51.5q31 -14 111 -41.5t113 -44.5q170 -80 170 -231q0 -125 -92.5 -198.5t-249.5 -73.5q-150 0 -260 51q-78 37 -78 92z" />
<glyph unicode="t" horiz-adv-x="722" d="M29 866q0 23 17 40.5t42 17.5h88v153q0 31 21.5 52.5t54.5 21.5q29 0 51.5 -21.5t22.5 -52.5v-153h282q25 0 42.5 -17.5t17.5 -40.5q0 -25 -17.5 -43t-42.5 -18h-282v-496q0 -100 37.5 -149t130.5 -49q59 0 118.5 33.5t71.5 33.5q25 0 40 -17.5t15 -41.5q0 -59 -98 -103 q-82 -36 -169 -36h-5q-291 0 -291 315v510h-88q-25 0 -42 18.5t-17 42.5z" />
<glyph unicode="u" horiz-adv-x="1118" d="M133 391v479q0 31 21.5 51.5t54.5 20.5q31 0 52.5 -20.5t21.5 -51.5v-467q0 -111 39 -180q61 -111 235 -111h2q176 0 238 111q37 66 37 180v467q0 31 22.5 51.5t53 20.5t53 -20.5t22.5 -51.5v-479q0 -160 -70 -262q-97 -149 -353 -149h-3q-256 0 -358 149 q-68 104 -68 262z" />
<glyph unicode="v" horiz-adv-x="901" d="M14 870q0 33 21.5 52.5t60.5 19.5q49 0 72 -63l281 -729h8l280 733q23 59 74 59q37 0 56.5 -18.5t19.5 -49.5q0 -27 -19 -67l-305 -733q-39 -94 -117 -94q-80 0 -116 94l-299 735q-16 39 -17 61z" />
<glyph unicode="w" horiz-adv-x="1404" d="M14 870q0 35 22.5 53.5t55.5 18.5q53 0 72 -74l231 -696l230 700q18 70 82 70q57 0 77 -70l230 -700l235 702q8 33 23.5 50.5t48.5 17.5q31 0 50.5 -18.5t19.5 -49.5q0 -25 -9 -49l-266 -757q-8 -27 -15 -41.5t-29.5 -29.5t-57.5 -15q-49 0 -70.5 22.5t-32.5 63.5 l-211 622l-213 -622q-20 -86 -98 -86q-45 0 -67.5 20.5t-36.5 65.5l-262 757q-8 25 -9 45z" />
<glyph unicode="x" horiz-adv-x="917" d="M14 55q0 27 43 74l303 344l-294 334q-33 41 -33 61q0 33 22.5 54.5t57.5 21.5q43 0 77 -43l269 -321l270 319q37 45 76 45q33 0 54.5 -21.5t21.5 -50.5q0 -27 -29 -59l-297 -332l317 -362q33 -39 33 -64q0 -31 -22.5 -53t-57.5 -22q-47 0 -86 51l-280 334l-287 -342 q-39 -43 -78 -43q-35 0 -57.5 21.5t-22.5 53.5z" />
<glyph unicode="y" horiz-adv-x="942" d="M14 862q0 35 23.5 58.5t58.5 23.5q59 0 78 -53l315 -754l279 740q27 67 80 67q33 0 56.5 -23.5t23.5 -56.5q0 -25 -17 -65l-333 -848q-166 -424 -461 -424q-31 0 -52.5 21.5t-21.5 50.5q0 31 20.5 52t53.5 21q102 0 170.5 67.5t128.5 205.5l-383 860q-18 43 -19 57z" />
<glyph unicode="z" horiz-adv-x="808" d="M10 860.5q0 26.5 18.5 46t45.5 19.5h643q27 0 45 -16.5t18 -41.5q0 -29 -28 -67l-516 -670h503q27 0 45.5 -19.5t18.5 -46t-18.5 -46t-45.5 -19.5h-647q-29 0 -46 16.5t-17 42.5q0 29 26 62l518 674h-499q-27 0 -45.5 19.5t-18.5 46z" />
<glyph unicode="{" horiz-adv-x="681" d="M39 651q0 72 47 72h8q186 0 187 303q0 45 -4.5 152.5t-4.5 134.5q0 301 299 301q29 0 45.5 -17.5t16.5 -42.5q0 -53 -62 -59q-74 -6 -114.5 -48t-40.5 -157q0 -43 3 -142t3 -138q0 -145 -48 -232.5t-157 -126.5q109 -37 157 -124t48 -234q0 -37 -3 -136.5t-3 -142.5 q0 -117 40 -157.5t115 -46.5q61 -6 62 -60q0 -25 -16.5 -42t-45.5 -17q-299 0 -299 299q0 29 4.5 136t4.5 153q0 303 -187 303h-8q-47 -1 -47 69z" />
<glyph unicode="|" horiz-adv-x="458" d="M156 -393v1732q0 31 21.5 52.5t54 21.5t55 -21.5t22.5 -52.5v-1732q0 -31 -22.5 -52.5t-55 -21.5t-55 21.5t-20.5 52.5z" />
<glyph unicode="}" horiz-adv-x="681" d="M49 -250q0 53 60 60q76 6 115.5 47t39.5 157q0 43 -2 142.5t-2 136.5q0 147 47 234t156 124q-109 39 -156 126t-47 233q0 39 2 138t2 142q0 115 -40 157t-115 48q-59 6 -60 59q0 25 16.5 42.5t43.5 17.5q299 0 299 -301q0 -27 -3.5 -134.5t-3.5 -152.5q0 -303 185 -303 h10q45 0 45 -72q0 -70 -45 -69h-10q-184 0 -185 -303q0 -45 3.5 -153t3.5 -136q0 -299 -299 -299q-27 0 -43.5 17.5t-16.5 41.5z" />
<glyph unicode="~" horiz-adv-x="1189" d="M111 551q0 74 80.5 140.5t189.5 66.5q68 0 131 -25.5t103 -57.5t89.5 -57.5t94.5 -25.5q47 0 81.5 20.5t51 45t39 45t49.5 20.5q67 0 67 -74t-78.5 -139.5t-191.5 -65.5q-76 0 -147.5 41t-138 82t-130.5 41q-49 0 -83.5 -20.5t-51 -45t-39 -45t-49.5 -20.5 q-31 0 -49 20.5t-18 53.5z" />
<glyph unicode="&#xa0;" />
<glyph unicode="&#xa1;" horiz-adv-x="505" d="M150 -309q0 29 2 65.5t6 79.5t6 62l39 585q4 61 51 61.5t51 -61.5l41 -585q12 -178 12 -207q0 -180 -104 -180t-104 180zM162 848q0 41 26.5 67.5t65.5 26.5q41 0 67.5 -26.5t26.5 -67.5q0 -39 -26.5 -65.5t-67.5 -26.5t-66.5 25.5t-25.5 66.5z" />
<glyph unicode="&#xa2;" d="M213 463q0 180 111 311q131 150 340 166v127q0 16 13 28.5t30 12.5q18 0 30.5 -12.5t12.5 -28.5v-127q100 -2 192 -49q70 -39 70 -76q0 -25 -18.5 -43t-43.5 -18q-12 0 -71 26q-78 37 -166 37q-168 0 -269 -123q-78 -94 -77 -231q0 -160 94 -258q94 -100 254 -101 q96 0 168 31q59 27 73 27q25 0 42.5 -18.5t17.5 -43.5q0 -47 -86 -80q-74 -33 -180 -38v-123q0 -16 -13.5 -28.5t-30 -12.5t-29.5 12t-13 29v123q-195 16 -310 127q-141 131 -141 354z" />
<glyph unicode="&#xa3;" d="M137 72q0 29 20.5 49t47.5 20h71q113 96 113 258q0 80 -35 181h-108q-27 0 -45.5 19t-18.5 46t18.5 46.5t45.5 19.5h61q-55 158 -55 272q0 176 115.5 303t337.5 127q131 0 239 -31q96 -29 96 -82q0 -29 -18 -49t-45 -20q-10 0 -109 29q-70 18 -149 18q-156 0 -233.5 -89 t-77.5 -210q0 -106 59 -268h387q27 0 45.5 -19.5t18.5 -46.5t-18.5 -46t-45.5 -19h-340q31 -109 31 -181q-1 -152 -107 -258h578q29 0 49 -20.5t20 -48.5q0 -31 -20.5 -51.5t-48.5 -20.5h-811q-29 0 -48.5 20.5t-19.5 51.5z" />
<glyph unicode="&#xa4;" horiz-adv-x="1415" d="M104 259q-1 28 19 46l168 168q-113 143 -113 322q0 182 113 321l-168 170q-18 20 -18.5 47t20 47.5t47.5 20.5t45 -19l168 -172q141 115 324 115q180 0 319 -113l170 168q18 18 46 18.5t48.5 -20t19.5 -47t-20 -45.5l-168 -168q115 -141 115 -323.5t-115 -323.5l168 -164 q20 -20 19.5 -47t-19.5 -45q-47 -47 -94 -4l-168 166q-139 -113 -321.5 -113t-323.5 115l-168 -168q-18 -20 -45 -19t-47 19q-20 20 -21 48zM283 794.5q0 -176.5 124.5 -301t301 -124.5t300.5 124.5t124 301t-124 300.5t-300.5 124t-301 -124t-124.5 -300.5z" />
<glyph unicode="&#xa5;" d="M37 1333q0 33 22.5 55.5t57.5 22.5q43 0 71 -41l424 -596l426 598q27 39 72 39q33 0 56.5 -22.5t23.5 -55.5q0 -29 -16 -55l-410 -563h285q23 0 39 -17.5t16 -40t-16.5 -39t-38.5 -16.5h-355v-176h355q23 0 39 -17.5t16 -40t-16.5 -39t-38.5 -16.5h-355v-256 q0 -33 -24.5 -56.5t-57.5 -23.5q-35 0 -58.5 24t-23.5 56v256h-354q-23 0 -39 16.5t-16 39t16.5 40t38.5 17.5h354v176h-354q-23 0 -39 16.5t-16 39t16.5 40t38.5 17.5h287l-408 563q-18 29 -18 55z" />
<glyph unicode="&#xa6;" horiz-adv-x="458" d="M154 299q0 31 21.5 52.5t54 21.5t54 -21.5t21.5 -52.5v-692q0 -31 -22.5 -52.5t-53.5 -21.5q-33 0 -54 21.5t-21 52.5v692zM154 647v692q0 31 21.5 52.5t54 21.5t54 -21.5t21.5 -52.5v-692q0 -31 -22.5 -52.5t-53.5 -21.5q-33 0 -54 21.5t-21 52.5z" />
<glyph unicode="&#xa7;" horiz-adv-x="964" d="M100 549q0 178 154 301q-96 96 -96 227q0 160 101 249t253 89q156 0 262 -63q70 -41 70 -84q0 -27 -19.5 -46.5t-46.5 -19.5q-16 0 -29.5 6t-35 22.5t-31.5 22.5q-66 43 -166 43q-82 0 -141.5 -49t-59.5 -151q0 -70 41 -129.5t102.5 -98.5t132.5 -87t132 -94t102 -122 t41 -168q0 -178 -155 -303q96 -96 96 -227q0 -160 -100.5 -248t-251.5 -88q-158 0 -262 61q-70 41 -70 84q0 29 18.5 47.5t46.5 18.5q16 0 29.5 -6t35 -22.5t34.5 -22.5q66 -41 162 -41q82 0 142 49t60 151q0 82 -56 147.5t-137 116t-163 103.5t-138.5 138t-56.5 194z M256 567q0 -72 38 -131t79 -91t121.5 -82t113.5 -75q102 78 103 189q0 72 -38 132t-78 91t-123 82t-116 76q-100 -84 -100 -191z" />
<glyph unicode="&#xa8;" horiz-adv-x="854" d="M143 1368q0 37 27 62.5t63 25.5q39 0 65 -25.5t26 -62.5q0 -39 -26 -65.5t-65 -26.5q-37 0 -63.5 26.5t-26.5 65.5zM528 1368q0 37 27 62.5t63.5 25.5t63.5 -25.5t27 -62.5q0 -39 -27 -65.5t-63.5 -26.5t-63.5 26.5t-27 65.5z" />
<glyph unicode="&#xa9;" horiz-adv-x="1705" d="M96 733.5q0 313.5 220.5 534.5t535.5 221q313 0 533.5 -221t220.5 -534.5t-220.5 -532.5t-533.5 -219t-534.5 219t-221.5 532.5zM186 733q0 -276 193.5 -470.5t472 -194.5t472.5 194.5t194 470.5q0 279 -194 474.5t-472.5 195.5t-472 -195.5t-193.5 -474.5zM489 727 q0 162 115 269.5t273 107.5q94 0 170 -31q57 -25 57 -57q0 -18 -12.5 -30.5t-30.5 -12.5q-10 0 -31.5 10t-34.5 14q-53 20 -121 21q-119 0 -203.5 -83t-84.5 -208q0 -131 84 -211t207 -80q76 0 122 19q10 2 23.5 8t24 9t18.5 3q45 0 45 -45q0 -31 -55 -51q-82 -29 -178 -29 q-168 0 -278 103.5t-110 273.5z" />
<glyph unicode="&#xaa;" horiz-adv-x="579" d="M70 1004q0 96 98 143q68 33 248 43v12q0 82 -41 115q-29 23 -80 22q-59 0 -108.5 -22.5t-55.5 -22.5q-35 0 -35 35q0 33 66.5 59.5t142.5 26.5q82 0 135 -39q68 -51 68 -184v-313q0 -45 -45 -45q-37 0 -41 49q-70 -45 -160 -45q-84 0 -135 43q-57 43 -57 123zM141 571 q0 14 9.5 25.5t23.5 11.5h229q14 0 24.5 -11t10.5 -25.5t-10 -23.5t-25 -9h-229q-33 0 -33 32zM160 1006q0 -45 36 -70t93 -25q68 0 127 33v180q-121 -10 -168 -24q-88 -25 -88 -94z" />
<glyph unicode="&#xab;" horiz-adv-x="1177" d="M80 461q0 24 20 49l398 410q18 20 49 20q29 0 49 -19.5t20 -46.5q0 -29 -20 -49l-352 -364l352 -365q20 -20 20 -49t-20 -47t-49 -18q-31 0 -49 20l-398 410q-20 25 -20 49zM563.5 460.5q-0.5 28.5 20.5 49.5l395 410q20 20 51 20q29 0 49.5 -19.5t20.5 -46.5 q0 -29 -21 -49l-352 -364l352 -365q20 -20 20.5 -49t-20 -47t-49.5 -18q-31 0 -51 20l-395 410q-20 20 -20.5 48.5z" />
<glyph unicode="&#xac;" horiz-adv-x="1142" d="M72 719q0 31 21 52.5t50 21.5h856q29 0 50.5 -21.5t21.5 -52.5v-279q0 -29 -21.5 -49t-50 -20t-50 20.5t-21.5 48.5v205h-785q-29 0 -50 21.5t-21 52.5z" />
<glyph unicode="&#xad;" horiz-adv-x="1024" d="M174 594q0 29 20.5 49.5t49.5 20.5h536q29 0 49.5 -20.5t20.5 -49.5t-20.5 -50.5t-49.5 -21.5h-536q-29 0 -49.5 21.5t-20.5 50.5z" />
<glyph unicode="&#xae;" horiz-adv-x="950" d="M96 1095.5q0 155.5 109.5 266.5t265.5 111q158 0 268.5 -111t110.5 -266.5t-110.5 -265t-266.5 -109.5t-266.5 109.5t-110.5 265zM147 1096q0 -135 95.5 -230.5t230.5 -95.5t230.5 96.5t95.5 229.5q0 137 -95.5 232t-230.5 95t-230.5 -95t-95.5 -232zM322 936v324 q0 25 26 24h137q139 0 140 -113q0 -84 -90 -106l81 -104q14 -18 15 -27q0 -25 -27 -25q-14 0 -29 21l-98 131h-102v-125q0 -27 -26.5 -27t-26.5 27zM375 1108h102q94 0 94 65.5t-90 65.5h-106v-131z" />
<glyph unicode="&#xaf;" horiz-adv-x="854" d="M154 1348q0 25 18 43t43 18h422q27 0 44 -18t17 -43q0 -27 -17 -44.5t-44 -17.5h-422q-25 0 -43 17.5t-18 44.5z" />
<glyph unicode="&#xb0;" horiz-adv-x="757" d="M102 1214.5q0 114.5 81 195.5t196 81t195.5 -81t80.5 -195.5t-80.5 -195.5t-195.5 -81t-196 81t-81 195.5zM174 1214q0 -86 58.5 -145t146.5 -59q86 0 146.5 59t60.5 145q0 88 -60.5 147.5t-146.5 59.5q-88 0 -146.5 -59t-58.5 -148z" />
<glyph unicode="&#xb1;" horiz-adv-x="1146" d="M72 72q0 29 20 49t49 20h867q27 0 47 -20.5t20 -48.5q0 -31 -19.5 -51.5t-47.5 -20.5h-867q-29 0 -49 20.5t-20 51.5zM72 803q0 29 20.5 49t48.5 20h361v363q0 29 21.5 49.5t50 20.5t50 -20.5t21.5 -49.5v-363h363q27 0 47 -20.5t20 -48.5q0 -31 -19.5 -51.5t-47.5 -20.5 h-363v-362q0 -27 -21.5 -47.5t-50 -20.5t-50 20.5t-21.5 47.5v362h-361q-29 0 -49 20.5t-20 51.5z" />
<glyph unicode="&#xb2;" horiz-adv-x="854" d="M188 723q0 131 74 205q37 39 121 86t102 61q76 55 76 125q0 61 -42 98t-107 37q-45 0 -95 -24q-66 -33 -75 -33q-16 0 -27.5 11t-11.5 30q0 31 55 59q78 37 156 37q102 0 168.5 -58.5t66.5 -154.5q0 -94 -71 -160q-37 -35 -120 -79.5t-116 -73.5q-55 -49 -55 -125h336 q16 0 27.5 -12.5t11.5 -28.5t-11.5 -28.5t-27.5 -12.5h-392q-43 0 -43 41z" />
<glyph unicode="&#xb3;" horiz-adv-x="854" d="M203 745q0 16 12 28.5t29 12.5q10 0 63 -24q43 -16 90 -17q76 0 120 39t44 101q0 90 -90 121q-18 6 -53 8t-49 6q-25 8 -25 34.5t25 35.5q6 0 45 4t57 12q66 29 66 106q0 51 -36 87t-98 36q-43 0 -88 -20.5t-55 -20.5q-18 0 -30.5 11.5t-12.5 27.5q0 25 41 47 q80 35 152 35q96 0 153.5 -55t57.5 -137q0 -117 -109 -162q135 -47 135 -182q0 -92 -66.5 -149.5t-179.5 -57.5q-74 0 -129 18q-70 18 -69 55z" />
<glyph unicode="&#xb4;" horiz-adv-x="854" d="M283 1212q0 16 12 39l156 283q20 43 57 43q27 0 44 -17.5t17 -39.5q0 -18 -16 -45l-166 -275q-23 -37 -53 -37q-20 0 -35.5 14.5t-15.5 34.5z" />
<glyph unicode="&#xb5;" horiz-adv-x="1118" d="M133 -285v1155q0 31 21.5 51.5t54.5 20.5q31 0 52.5 -20.5t21.5 -51.5v-467q0 -111 39 -180q61 -111 237 -110.5t238 110.5q37 66 37 180v467q0 31 22.5 51.5t53 20.5t53 -20.5t22.5 -51.5v-479q0 -160 -70 -262q-98 -150 -356 -149q-168 0 -276 69v-334q0 -29 -22.5 -50 t-51.5 -21q-33 0 -54.5 21t-21.5 50z" />
<glyph unicode="&#xb6;" horiz-adv-x="1269" d="M78 1055q0 199 123 306t348 107h627q25 0 43 -19t18 -44q0 -27 -18.5 -45.5t-42.5 -18.5h-183v-1683q0 -27 -20.5 -46.5t-49 -19.5t-48 18.5t-19.5 47.5v1683h-240v-1683q0 -27 -19 -46.5t-48 -19.5t-49.5 19.5t-20.5 46.5l2 981q-188 10 -295.5 121.5t-107.5 294.5z" />
<glyph unicode="&#xb7;" horiz-adv-x="393" d="M100 707q0 41 29 69.5t70 28.5t69.5 -28.5t28.5 -69.5t-28.5 -70t-69.5 -29t-70 29t-29 70z" />
<glyph unicode="&#xb8;" horiz-adv-x="819" d="M244 -356q0 16 12 28.5t29 12.5q8 0 31.5 -3.5t43.5 -3.5q59 0 102.5 24t43.5 75q0 43 -37 64.5t-90 21.5q-49 0 -43 49l10 108h78l2 -92q80 -6 131 -46.5t51 -106.5q0 -92 -75.5 -136.5t-180.5 -44.5q-43 0 -69 9q-39 6 -39 41z" />
<glyph unicode="&#xb9;" horiz-adv-x="854" d="M213 1300q0 31 35 43l168 66q24 6 28 6q45 0 45 -47v-604h123q39 0 39 -41t-39 -41h-354q-16 0 -28.5 12.5t-12.5 28.5t12.5 28.5t28.5 12.5h137v549l-112 -43q-18 -8 -31 -8q-39 0 -39 38z" />
<glyph unicode="&#xba;" horiz-adv-x="788" d="M100 1126.5q0 112.5 72 194.5q84 94 221 94q139 0 223 -94q72 -82 72 -194.5t-72 -194.5q-88 -94 -223 -94q-133 0 -221 94q-72 82 -72 194.5zM195 1126q0 -82 49 -137q57 -68 149 -67q90 0 152 67q49 55 49 137t-49 138q-61 70 -151.5 69.5t-149.5 -69.5 q-49 -56 -49 -138zM246 571q0 14 9.5 25.5t23.5 11.5h229q14 0 24.5 -11t10.5 -25.5t-10.5 -23.5t-24.5 -9h-229q-33 0 -33 32z" />
<glyph unicode="&#xbb;" horiz-adv-x="1177" d="M80 47q0 25 20 49l351 365l-351 364q-20 25 -20 49q0 27 19.5 46.5t47.5 19.5q31 0 52 -20l395 -410q23 -23 22.5 -49.5t-22.5 -48.5l-395 -410q-21 -20 -49.5 -20t-49 18t-20.5 47zM563 47q0 31 19 49l352 365l-352 364q-18 18 -19 49q0 29 19.5 47.5t48.5 18.5 q31 0 51 -20l395 -410q23 -23 23 -49.5t-23 -48.5l-395 -410q-20 -20 -51 -20q-29 0 -48.5 18t-19.5 47z" />
<glyph unicode="&#xbc;" horiz-adv-x="854" d="M80 485.5q0 16.5 12 28.5t29 12h610q16 0 27.5 -12t11.5 -28.5t-11 -29t-28 -12.5h-610q-16 0 -28.5 12.5t-12.5 29zM121 -225q0 14 10 28l334 473q18 27 43 27q20 0 33.5 -14.5t13.5 -32.5v-442h84q14 0 25.5 -11.5t11.5 -28t-10.5 -27.5t-26.5 -11h-84v-131 q0 -18 -13.5 -31.5t-31.5 -13.5q-20 0 -32.5 13t-12.5 32v131h-305q-39 0 -39 39zM205 1300q0 31 35 43l166 66q24 6 30 6q43 0 43 -47v-604h123q39 0 39 -41t-39 -41h-354q-16 0 -27.5 12.5t-11.5 28.5t11 28.5t28 12.5h137v549l-111 -43q-23 -8 -32 -8q-37 0 -37 38z M236 -186h229v325z" />
<glyph unicode="&#xbd;" horiz-adv-x="854" d="M80 485.5q0 16.5 12 28.5t29 12h610q39 0 39 -41t-39 -41h-610q-18 0 -29.5 12.5t-11.5 29zM186 -389q0 131 74 205q37 39 122 88t99 59q78 57 78 125q0 61 -42 98t-107 37q-51 0 -97 -24q-10 -4 -22 -11.5t-19.5 -11.5t-15.5 -7t-16 -3q-16 0 -28.5 11t-12.5 30 q0 29 57 59q78 37 156 37q102 0 168.5 -58.5t66.5 -154.5q0 -94 -72 -160q-37 -35 -119.5 -80t-115.5 -73q-57 -51 -57 -125h338q16 0 27 -12.5t11 -29t-11 -28.5t-27 -12h-392q-43 0 -43 41zM205 1300q0 31 35 43l166 66q24 6 30 6q43 0 43 -47v-604h123q39 0 39 -41 t-39 -41h-354q-16 0 -27.5 12.5t-11.5 28.5t11 28.5t28 12.5h137v549l-111 -43q-29 -8 -32 -8q-37 0 -37 38z" />
<glyph unicode="&#xbe;" horiz-adv-x="854" d="M80 485.5q0 16.5 12 28.5t29 12h610q16 0 27.5 -12t11.5 -28.5t-11 -29t-28 -12.5h-610q-16 0 -28.5 12.5t-12.5 29zM121 -225q0 14 10 28l334 473q18 27 43 27q20 0 33.5 -14.5t13.5 -32.5v-442h84q14 0 25.5 -11.5t11.5 -28t-10.5 -27.5t-26.5 -11h-84v-131 q0 -18 -13.5 -31.5t-31.5 -13.5q-20 0 -32.5 13t-12.5 32v131h-305q-39 0 -39 39zM184 745q0 16 12.5 28.5t28.5 12.5q10 0 64 -24q43 -16 90 -17q76 0 120 39t44 101q0 90 -90 121q-18 6 -53 8t-50 6q-25 8 -24.5 34.5t24.5 35.5q6 0 45 4t58 12q66 29 65 106q0 51 -36 87 t-97 36q-43 0 -88 -20.5t-55 -20.5q-18 0 -30.5 11.5t-12.5 27.5q0 25 41 47q80 35 151 35q96 0 153.5 -55t57.5 -137q0 -117 -108 -162q135 -47 135 -182q0 -92 -66.5 -149.5t-179.5 -57.5q-74 0 -129 18q-70 18 -70 55zM236 -186h229v325z" />
<glyph unicode="&#xbf;" horiz-adv-x="1021" d="M90 -92q0 113 52.5 185.5t158.5 148.5q53 39 83 64.5t61.5 71.5t39.5 97q10 53 25.5 74.5t50.5 21.5q31 0 51.5 -22.5t20.5 -54.5q0 -68 -49 -158q-18 -35 -49 -70t-49.5 -52t-73 -60t-66.5 -54q-102 -86 -102 -192q0 -119 81 -189.5t205 -70.5q135 0 256 82 q16 12 37 28.5t31 24.5t25.5 14t29.5 6q27 0 46.5 -19t19.5 -48q0 -55 -105 -121q-158 -104 -350 -104q-184 0 -307 110.5t-123 286.5zM467 850q0 39 26.5 66.5t67.5 27.5t67.5 -27.5t26.5 -66.5t-26.5 -66.5t-67.5 -27.5t-67.5 27.5t-26.5 66.5z" />
<glyph unicode="&#xc0;" horiz-adv-x="1263" d="M16 55q0 14 13 43l491 1231q29 84 113 84q86 0 115 -84l489 -1231q10 -20 10 -43q0 -35 -22.5 -55t-59.5 -20q-59 0 -82 59l-120 305h-662l-125 -305q-20 -59 -82 -59q-35 0 -56.5 21.5t-21.5 53.5zM342 477h578l-289 725zM487 1939q0 23 18.5 40.5t43.5 17.5 q39 0 57 -43l158 -283q10 -25 10 -39q0 -20 -14.5 -34.5t-36.5 -14.5q-31 0 -53 37l-166 274q-16 27 -17 45z" />
<glyph unicode="&#xc1;" horiz-adv-x="1263" d="M16 55q0 14 13 43l491 1231q29 84 113 84q86 0 115 -84l489 -1231q10 -20 10 -43q0 -35 -22.5 -55t-59.5 -20q-59 0 -82 59l-120 305h-662l-125 -305q-20 -59 -82 -59q-35 0 -56.5 21.5t-21.5 53.5zM342 477h578l-289 725zM487 1632q0 18 13 39l155 283q20 43 58 43 q27 0 44 -17.5t17 -40.5q0 -18 -16 -45l-166 -274q-23 -37 -53 -37q-20 0 -36 14.5t-16 34.5z" />
<glyph unicode="&#xc2;" horiz-adv-x="1263" d="M16 55q0 14 13 43l491 1231q29 84 113 84q86 0 115 -84l489 -1231q10 -20 10 -43q0 -35 -22.5 -55t-59.5 -20q-59 0 -82 59l-120 305h-662l-125 -305q-20 -59 -82 -59q-35 0 -56.5 21.5t-21.5 53.5zM303 1663q0 20 25 45l254 260q24 25 47 25q25 0 49 -25l252 -260 q27 -23 26 -45q0 -25 -16 -40t-38.5 -15t-39.5 16l-233 240l-232 -240q-16 -16 -39 -16q-25 0 -40 15t-15 40zM342 477h578l-289 725z" />
<glyph unicode="&#xc3;" horiz-adv-x="1263" d="M16 55q0 14 13 43l491 1231q29 84 113 84q86 0 115 -84l489 -1231q10 -20 10 -43q0 -35 -22.5 -55t-59.5 -20q-59 0 -82 59l-120 305h-662l-125 -305q-20 -59 -82 -59q-35 0 -56.5 21.5t-21.5 53.5zM293 1794q0 41 45 86q55 59 143 59q72 0 154 -53q6 -4 21.5 -14 t22.5 -14.5t20.5 -11.5t22.5 -10t20.5 -6t23.5 -3q47 0 82 39q8 6 18.5 18t16.5 18.5t15 11.5t20 5q23 0 36 -15t13 -40q0 -43 -43 -86q-53 -57 -144 -58q-68 0 -153 56q-90 55 -131 55q-49 0 -84 -39q-6 -6 -16.5 -18.5t-16.5 -17.5t-15.5 -10t-19.5 -5q-23 0 -37 15.5 t-14 37.5zM342 477h578l-289 725z" />
<glyph unicode="&#xc4;" horiz-adv-x="1263" d="M16 55q0 14 13 43l491 1231q29 84 113 84q86 0 115 -84l489 -1231q10 -20 10 -43q0 -35 -22.5 -55t-59.5 -20q-59 0 -82 59l-120 305h-662l-125 -305q-20 -59 -82 -59q-35 0 -56.5 21.5t-21.5 53.5zM342 477h578l-289 725zM348 1782q0 37 26.5 62.5t63.5 25.5 q39 0 64.5 -25.5t25.5 -62.5q0 -39 -25.5 -65.5t-64.5 -26.5q-37 0 -63.5 26.5t-26.5 65.5zM733 1782q0 37 26.5 62.5t63.5 25.5t63.5 -25.5t26.5 -62.5q0 -39 -26.5 -65.5t-63.5 -26.5t-63.5 26.5t-26.5 65.5z" />
<glyph unicode="&#xc5;" horiz-adv-x="1263" d="M16 55q0 14 13 43l491 1231q29 84 113 84q86 0 115 -84l489 -1231q10 -20 10 -43q0 -35 -22.5 -55t-59.5 -20q-59 0 -82 59l-120 305h-662l-125 -305q-20 -59 -82 -59q-35 0 -56.5 21.5t-21.5 53.5zM342 477h578l-289 725zM393 1765q0 98 69.5 168t168 70t167 -70 t68.5 -168q0 -100 -68.5 -168.5t-167 -68.5t-168 68.5t-69.5 168.5zM469 1765q0 -70 47 -116.5t114.5 -46.5t115 46.5t47.5 116.5q0 68 -47.5 116t-115 48t-114.5 -48t-47 -116z" />
<glyph unicode="&#xc6;" horiz-adv-x="2004" d="M16 55q0 29 27 66l920 1194q66 80 141 80h766q29 0 50.5 -21.5t21.5 -50.5q0 -31 -22 -52.5t-50 -21.5h-676v-477h569q29 0 50.5 -22.5t21.5 -51t-21.5 -50t-50.5 -21.5h-569v-482h676q29 0 50.5 -22.5t21.5 -51t-22 -50t-50 -21.5h-758q-35 0 -58.5 23.5t-23.5 56.5v264 h-614l-238 -309q-16 -23 -24.5 -31t-23.5 -16t-36 -8q-37 0 -57.5 20t-20.5 55zM516 477h514v670z" />
<glyph unicode="&#xc7;" horiz-adv-x="1349" d="M96 698q0 293 216 504t513 211q193 0 342 -67q98 -41 99 -103q0 -33 -21.5 -54.5t-54.5 -21.5q-14 0 -33.5 10.5t-52.5 27t-66 28.5q-94 33 -215 33q-227 0 -392 -167t-165 -401q0 -250 163 -410.5t394 -160.5q117 0 217 35q37 12 72 29.5t54.5 27.5t33.5 10 q31 0 53.5 -21.5t22.5 -53.5q0 -55 -100 -103q-139 -66 -320 -71l2 -52q80 -6 131 -46.5t51 -106.5q0 -92 -75.5 -136.5t-180.5 -44.5q-47 0 -73 9q-35 12 -35 41q0 16 12 28.5t29 12.5q8 0 31.5 -3.5t44.5 -3.5q59 0 102 24t43 75q0 43 -37 64.5t-90 21.5q-49 0 -43 49 l6 70q-291 16 -484.5 212.5t-193.5 503.5z" />
<glyph unicode="&#xc8;" horiz-adv-x="1232" d="M154 80v1235q0 33 23.5 56.5t58.5 23.5h862q29 0 49 -21.5t20 -50.5q0 -31 -20.5 -52.5t-48.5 -21.5h-781v-477h674q31 0 51.5 -21.5t20.5 -52.5q0 -29 -20.5 -50t-51.5 -21h-674v-482h781q29 0 49 -21.5t20 -51.5q0 -29 -20.5 -50.5t-48.5 -21.5h-862q-35 0 -58.5 23.5 t-23.5 56.5zM471 1933q0 23 18.5 40.5t42.5 17.5q35 0 58 -43l158 -283q12 -23 12 -39q0 -20 -15.5 -34.5t-37.5 -14.5q-33 0 -54 37l-166 274q-16 27 -16 45z" />
<glyph unicode="&#xc9;" horiz-adv-x="1232" d="M154 80v1235q0 33 23.5 56.5t58.5 23.5h862q29 0 49 -21.5t20 -50.5q0 -31 -20.5 -52.5t-48.5 -21.5h-781v-477h674q31 0 51.5 -21.5t20.5 -52.5q0 -29 -20.5 -50t-51.5 -21h-674v-482h781q29 0 49 -21.5t20 -51.5q0 -29 -20.5 -50.5t-48.5 -21.5h-862q-35 0 -58.5 23.5 t-23.5 56.5zM500 1626q0 16 12 39l156 283q20 43 57 43q27 0 44 -17.5t17 -40.5q0 -18 -16 -45l-166 -274q-23 -37 -53 -37q-20 0 -35.5 14.5t-15.5 34.5z" />
<glyph unicode="&#xca;" horiz-adv-x="1232" d="M154 80v1235q0 33 23.5 56.5t58.5 23.5h862q29 0 49 -21.5t20 -50.5q0 -31 -20.5 -52.5t-48.5 -21.5h-781v-477h674q31 0 51.5 -21.5t20.5 -52.5q0 -29 -20.5 -50t-51.5 -21h-674v-482h781q29 0 49 -21.5t20 -51.5q0 -29 -20.5 -50.5t-48.5 -21.5h-862q-35 0 -58.5 23.5 t-23.5 56.5zM303 1659q0 20 25 45l254 260q24 25 47 25q25 0 49 -25l252 -260q27 -31 26 -45q0 -25 -16 -40t-38.5 -15t-39.5 16l-233 240l-232 -240q-16 -16 -39 -16q-25 0 -40 15t-15 40z" />
<glyph unicode="&#xcb;" horiz-adv-x="1232" d="M154 80v1235q0 33 23.5 56.5t58.5 23.5h862q29 0 49 -21.5t20 -50.5q0 -31 -20.5 -52.5t-48.5 -21.5h-781v-477h674q31 0 51.5 -21.5t20.5 -52.5q0 -29 -20.5 -50t-51.5 -21h-674v-482h781q29 0 49 -21.5t20 -51.5q0 -29 -20.5 -50.5t-48.5 -21.5h-862q-35 0 -58.5 23.5 t-23.5 56.5zM352 1782q0 37 27 62.5t63 25.5q39 0 64.5 -25.5t25.5 -62.5q0 -39 -25.5 -65.5t-64.5 -26.5q-37 0 -63.5 26.5t-26.5 65.5zM737 1782q0 37 27 62.5t63.5 25.5t63.5 -25.5t27 -62.5q0 -39 -27 -65.5t-63.5 -26.5t-63.5 26.5t-27 65.5z" />
<glyph unicode="&#xcc;" horiz-adv-x="471" d="M96 1933q0 23 18.5 40.5t43.5 17.5q35 0 57 -43l158 -283q12 -23 12 -39q0 -20 -15.5 -34.5t-37.5 -14.5q-33 0 -53 37l-166 274q-16 27 -17 45zM154 59v1274q0 33 24.5 56.5t57 23.5t57 -23.5t24.5 -56.5v-1274q0 -33 -24.5 -56t-57 -23t-57 23t-24.5 56z" />
<glyph unicode="&#xcd;" horiz-adv-x="471" d="M96 1626q0 16 13 39l155 283q23 43 58 43q27 0 44 -17.5t17 -40.5q0 -18 -16 -45l-166 -274q-23 -37 -54 -37q-20 0 -35.5 14.5t-15.5 34.5zM154 59v1274q0 33 24.5 56.5t57 23.5t57 -23.5t24.5 -56.5v-1274q0 -33 -24.5 -56t-57 -23t-57 23t-24.5 56z" />
<glyph unicode="&#xce;" horiz-adv-x="471" d="M-86 1659q0 20 25 45l254 260q24 25 47 25q25 0 49 -25l252 -260q27 -31 26 -45q0 -25 -16 -40t-39 -15t-39 16l-233 240l-232 -240q-16 -16 -39 -16q-25 0 -40 15t-15 40zM154 59v1274q0 33 24.5 56.5t57 23.5t57 -23.5t24.5 -56.5v-1274q0 -33 -24.5 -56t-57 -23 t-57 23t-24.5 56z" />
<glyph unicode="&#xcf;" horiz-adv-x="471" d="M-43 1782q0 37 26.5 62.5t63.5 25.5q39 0 64.5 -25.5t25.5 -62.5q0 -39 -25.5 -65.5t-64.5 -26.5q-37 0 -63.5 26.5t-26.5 65.5zM154 59v1274q0 33 24.5 56.5t57 23.5t57 -23.5t24.5 -56.5v-1274q0 -33 -24.5 -56t-57 -23t-57 23t-24.5 56zM342 1782q0 37 26.5 62.5 t63.5 25.5t63.5 -25.5t26.5 -62.5q0 -39 -26.5 -65.5t-63.5 -26.5t-63.5 26.5t-26.5 65.5z" />
<glyph unicode="&#xd0;" horiz-adv-x="1521" d="M-45 696.5q0 28.5 20.5 49t47.5 20.5h141v549q0 33 23.5 56.5t58.5 23.5h436q385 0 582 -219q162 -182 161 -480q0 -365 -260 -553q-197 -143 -514 -143h-405q-35 0 -58.5 23.5t-23.5 56.5v547h-141q-29 0 -48.5 20.5t-19.5 49zM328 139h307q233 0 381 86 q242 135 241 471q0 240 -129 385q-154 174 -473 174h-327v-489h293q27 0 47 -20.5t20 -49t-19 -49t-48 -20.5h-293v-488z" />
<glyph unicode="&#xd1;" horiz-adv-x="1515" d="M154 53v1272q0 35 26.5 61.5t65.5 26.5q47 0 82 -45l876 -1102v1071q0 31 23.5 53.5t56.5 22.5t55.5 -22.5t22.5 -53.5v-1269q0 -37 -27.5 -62.5t-66.5 -25.5q-43 0 -82 45l-875 1101v-1073q0 -31 -23.5 -52t-56 -21t-55 21.5t-22.5 51.5zM422 1794q0 41 45 86 q55 59 143 59q80 0 162 -53q8 -6 25.5 -17t25.5 -16.5t22.5 -12.5t27 -10t26.5 -3q45 0 84 46t64 46q23 0 36 -15t13 -40q0 -43 -43 -86q-53 -57 -144 -58q-76 0 -161 56q-6 4 -24.5 15t-26 16t-23 11.5t-27.5 9.5t-26 3q-47 0 -85 -45t-63 -45q-23 0 -37 15.5t-14 37.5z " />
<glyph unicode="&#xd2;" horiz-adv-x="1650" d="M96 694q0 303 214 511t515 208t515 -208t214 -511q0 -301 -214 -507.5t-515 -206.5t-515 206.5t-214 507.5zM270 694q0 -236 161 -399.5t394.5 -163.5t395 165t161.5 398.5t-161.5 399.5t-395 166t-394.5 -166t-161 -400zM680 1933q0 23 18.5 40.5t42.5 17.5q35 0 58 -43 l157 -283q13 -23 13 -39q0 -20 -15.5 -34.5t-38.5 -14.5q-31 0 -53 37l-166 274q-16 27 -16 45z" />
<glyph unicode="&#xd3;" horiz-adv-x="1650" d="M96 694q0 303 214 511t515 208t515 -208t214 -511q0 -301 -214 -507.5t-515 -206.5t-515 206.5t-214 507.5zM270 694q0 -236 161 -399.5t394.5 -163.5t395 165t161.5 398.5t-161.5 399.5t-395 166t-394.5 -166t-161 -400zM682 1626q0 16 12 39l156 283q23 43 57 43 q27 0 44.5 -17.5t17.5 -40.5q0 -18 -17 -45l-166 -274q-23 -37 -53 -37q-20 0 -35.5 14.5t-15.5 34.5z" />
<glyph unicode="&#xd4;" horiz-adv-x="1650" d="M96 694q0 303 214 511t515 208t515 -208t214 -511q0 -301 -214 -507.5t-515 -206.5t-515 206.5t-214 507.5zM270 694q0 -236 161 -399.5t394.5 -163.5t395 165t161.5 398.5t-161.5 399.5t-395 166t-394.5 -166t-161 -400zM498 1659q0 20 24 45l254 260q24 25 47 25 q25 0 49 -25l252 -260q27 -31 27 -45q0 -25 -16.5 -40t-39 -15t-38.5 16l-234 240l-231 -240q-16 -16 -39 -16q-25 0 -40 15t-15 40z" />
<glyph unicode="&#xd5;" horiz-adv-x="1650" d="M96 694q0 303 214 511t515 208t515 -208t214 -511q0 -301 -214 -507.5t-515 -206.5t-515 206.5t-214 507.5zM270 694q0 -236 161 -399.5t394.5 -163.5t395 165t161.5 398.5t-161.5 399.5t-395 166t-394.5 -166t-161 -400zM485 1794q0 41 45 86q55 59 144 59q80 0 162 -53 q8 -6 25.5 -17t25.5 -16.5t22.5 -12.5t26.5 -10t27 -3q45 0 83.5 46t63.5 46q23 0 36 -15t13 -40q0 -43 -43 -86q-53 -57 -143 -58q-76 0 -162 56q-6 4 -24.5 15t-25.5 16t-22.5 11.5t-28 9.5t-26.5 3q-47 0 -85 -45t-62 -45q-23 0 -37.5 15.5t-14.5 37.5z" />
<glyph unicode="&#xd6;" horiz-adv-x="1650" d="M96 694q0 303 214 511t515 208t515 -208t214 -511q0 -301 -214 -507.5t-515 -206.5t-515 206.5t-214 507.5zM270 694q0 -236 161 -399.5t394.5 -163.5t395 165t161.5 398.5t-161.5 399.5t-395 166t-394.5 -166t-161 -400zM541 1782q0 37 26.5 62.5t63.5 25.5 q39 0 64.5 -25.5t25.5 -62.5q0 -39 -25.5 -65.5t-64.5 -26.5q-37 0 -63.5 26.5t-26.5 65.5zM926 1782q0 37 26.5 62.5t63.5 25.5t63.5 -25.5t26.5 -62.5q0 -39 -26.5 -65.5t-63.5 -26.5t-63.5 26.5t-26.5 65.5z" />
<glyph unicode="&#xd7;" horiz-adv-x="987" d="M70 370.5q0 28.5 20 49.5l303 303l-303 303q-20 20 -20 49t20 51q23 20 50.5 20.5t49.5 -20.5l304 -303l303 303q20 20 48.5 20.5t51.5 -20.5q20 -23 19 -51t-19 -49l-303 -303l303 -303q18 -20 19.5 -49t-19.5 -52q-23 -20 -51.5 -20t-48.5 20l-303 304l-304 -304 q-23 -20 -50 -20t-50 20q-20 23 -20 51.5z" />
<glyph unicode="&#xd8;" horiz-adv-x="1650" d="M96 694q0 301 215 510t516 209q236 0 424 -139l95 108q16 20 43 21q23 0 38 -16.5t15 -40.5q0 -23 -15 -37l-90 -105q217 -207 217 -510q0 -301 -213 -507.5t-514 -206.5q-242 0 -430 137l-94 -111q-16 -20 -43 -20q-23 0 -38 16t-15 41q0 23 14 37l90 106 q-215 205 -215 508zM270 694q0 -223 154 -381l719 836q-139 111 -318 111q-229 0 -392 -168.5t-163 -397.5zM506 240q137 -109 319 -109q229 0 393 167t164 396q0 223 -157 381z" />
<glyph unicode="&#xd9;" horiz-adv-x="1478" d="M150 551v782q0 33 24.5 56.5t56.5 23.5q35 0 58.5 -23.5t23.5 -56.5v-762q0 -203 105 -319q112 -125 319 -125q211 0 324 125q104 117 104 319v762q0 33 23.5 56.5t58.5 23.5q33 0 57.5 -23.5t24.5 -56.5v-782q0 -248 -135 -395q-158 -176 -455 -176t-454 176 q-135 147 -135 395zM592 1933q0 23 18.5 40.5t42.5 17.5q35 0 58 -43l157 -283q13 -23 13 -39q0 -20 -15.5 -34.5t-38.5 -14.5q-33 0 -53 37l-166 274q-16 27 -16 45z" />
<glyph unicode="&#xda;" horiz-adv-x="1478" d="M150 551v782q0 33 24.5 56.5t56.5 23.5q35 0 58.5 -23.5t23.5 -56.5v-762q0 -203 105 -319q112 -125 319 -125q211 0 324 125q104 117 104 319v762q0 33 23.5 56.5t58.5 23.5q33 0 57.5 -23.5t24.5 -56.5v-782q0 -248 -135 -395q-158 -176 -455 -176t-454 176 q-135 147 -135 395zM594 1626q0 16 12 39l156 283q20 43 57 43q27 0 44.5 -17.5t17.5 -40.5q0 -18 -17 -45l-166 -274q-23 -37 -53 -37q-20 0 -35.5 14.5t-15.5 34.5z" />
<glyph unicode="&#xdb;" horiz-adv-x="1478" d="M150 551v782q0 33 24.5 56.5t56.5 23.5q35 0 58.5 -23.5t23.5 -56.5v-762q0 -203 105 -319q112 -125 319 -125q211 0 324 125q104 117 104 319v762q0 33 23.5 56.5t58.5 23.5q33 0 57.5 -23.5t24.5 -56.5v-782q0 -248 -135 -395q-158 -176 -455 -176t-454 176 q-135 147 -135 395zM412 1659q0 20 24 45l254 260q24 25 47 25q25 0 49 -25l252 -260q27 -31 27 -45q0 -25 -16.5 -40t-39 -15t-38.5 16l-234 240l-231 -240q-16 -16 -39 -16q-25 0 -40 15t-15 40z" />
<glyph unicode="&#xdc;" horiz-adv-x="1478" d="M150 551v782q0 33 24.5 56.5t56.5 23.5q35 0 58.5 -23.5t23.5 -56.5v-762q0 -203 105 -319q112 -125 319 -125q211 0 324 125q104 117 104 319v762q0 33 23.5 56.5t58.5 23.5q33 0 57.5 -23.5t24.5 -56.5v-782q0 -248 -135 -395q-158 -176 -455 -176t-454 176 q-135 147 -135 395zM442 1782q0 37 27 62.5t63 25.5q39 0 65 -25.5t26 -62.5q0 -39 -26 -65.5t-65 -26.5q-37 0 -63.5 26.5t-26.5 65.5zM827 1782q0 37 27 62.5t63.5 25.5t63.5 -25.5t27 -62.5q0 -39 -27 -65.5t-63.5 -26.5t-63.5 26.5t-27 65.5z" />
<glyph unicode="&#xdd;" horiz-adv-x="1157" d="M2 1335q0 33 22.5 55.5t57.5 22.5q43 0 72 -41l424 -596l426 596q29 41 71 41q33 0 56.5 -22.5t23.5 -55.5q0 -28 -16 -57l-480 -666v-553q0 -33 -24.5 -56t-57 -23t-57 23.5t-24.5 55.5v553l-476 668q-18 29 -18 55zM442 1626q0 16 13 39l155 283q20 43 58 43 q27 0 44 -17.5t17 -40.5q0 -18 -16 -45l-166 -274q-23 -37 -53 -37q-20 0 -36 14.5t-16 34.5z" />
<glyph unicode="&#xde;" horiz-adv-x="1282" d="M154 -219v1552q0 33 24.5 56.5t57 23.5t57 -23.5t24.5 -56.5v-227h404q199 0 321 -96q164 -127 164 -363q0 -242 -176 -371q-121 -88 -330 -88h-383v-407q0 -33 -23.5 -55.5t-58 -22.5t-58 22.5t-23.5 55.5zM317 332h357q164 0 248 61q118 86 118 254q0 160 -106 244 q-92 72 -238 72h-379v-631z" />
<glyph unicode="&#xdf;" horiz-adv-x="1140" d="M147 -61v1079q0 190 102.5 292.5t278.5 102.5q180 0 281.5 -76.5t101.5 -222.5q0 -66 -28.5 -116t-68.5 -76.5t-81 -47t-69.5 -38t-28.5 -35.5q0 -27 31.5 -48.5t96 -48t95.5 -45.5q190 -109 191 -309q0 -156 -109 -263t-278 -107q-147 0 -246 49q-84 41 -84 96 q0 31 16.5 49.5t42.5 18.5q14 0 80 -39q70 -45 186 -45q109 0 178.5 66.5t69.5 164.5q0 137 -145 211q-20 10 -70.5 32.5t-76 38t-58.5 40t-48 56.5t-15 70q0 43 40.5 74t91 50.5t91.5 66.5t41 117q0 96 -60.5 145t-163.5 49q-106 0 -168.5 -66.5t-62.5 -205.5v-1079 q0 -31 -22.5 -52.5t-53.5 -21.5q-33 0 -55.5 21.5t-22.5 52.5z" />
<glyph unicode="&#xe0;" horiz-adv-x="974" d="M88 252q0 170 188 242q115 45 414 67v29q0 117 -47 172q-51 59 -166 59q-94 0 -184 -35q-20 -8 -43 -19t-36 -16.5t-24 -5.5q-25 0 -41 17.5t-16 42.5q0 45 100 88q115 49 261 49q184 0 270 -98q78 -92 78 -252v-541q0 -29 -22.5 -50t-53.5 -21q-29 0 -51.5 19t-24.5 46 q-125 -66 -270 -65q-135 0 -233.5 70.5t-98.5 201.5zM229 260q0 -80 69 -121t165 -41q113 0 227 60v288q-205 -8 -305 -36q-156 -39 -156 -150zM348 1520q0 23 18.5 40t43.5 17q35 0 57 -43l158 -283q12 -23 12 -39q0 -20 -15.5 -34.5t-37.5 -14.5q-31 0 -54 37l-165 275 q-16 27 -17 45z" />
<glyph unicode="&#xe1;" horiz-adv-x="974" d="M88 252q0 170 188 242q115 45 414 67v29q0 117 -47 172q-51 59 -166 59q-94 0 -184 -35q-20 -8 -43 -19t-36 -16.5t-24 -5.5q-25 0 -41 17.5t-16 42.5q0 45 100 88q115 49 261 49q184 0 270 -98q78 -92 78 -252v-541q0 -29 -22.5 -50t-53.5 -21q-29 0 -51.5 19t-24.5 46 q-125 -66 -270 -65q-135 0 -233.5 70.5t-98.5 201.5zM229 260q0 -80 69 -121t165 -41q113 0 227 60v288q-205 -8 -305 -36q-156 -39 -156 -150zM342 1212q0 16 12 39l156 283q23 43 57 43q27 0 44.5 -17.5t17.5 -39.5q0 -18 -17 -45l-166 -275q-23 -37 -53 -37 q-20 0 -35.5 14.5t-15.5 34.5z" />
<glyph unicode="&#xe2;" horiz-adv-x="974" d="M88 252q0 170 188 242q115 45 414 67v29q0 117 -47 172q-51 59 -166 59q-94 0 -184 -35q-20 -8 -43 -19t-36 -16.5t-24 -5.5q-25 0 -41 17.5t-16 42.5q0 45 100 88q115 49 261 49q184 0 270 -98q78 -92 78 -252v-541q0 -29 -22.5 -50t-53.5 -21q-29 0 -51.5 19t-24.5 46 q-125 -66 -270 -65q-135 0 -233.5 70.5t-98.5 201.5zM162 1245q0 20 24 45l254 260q24 25 47 25q25 0 50 -25l251 -260q27 -31 27 -45q0 -25 -16.5 -40t-39 -15t-38.5 16l-234 240l-231 -240q-16 -16 -39 -16q-25 0 -40 15.5t-15 39.5zM229 260q0 -80 69 -121t165 -41 q113 0 227 60v288q-205 -8 -305 -36q-156 -39 -156 -150z" />
<glyph unicode="&#xe3;" horiz-adv-x="974" d="M88 252q0 170 188 242q115 45 414 67v29q0 117 -47 172q-51 59 -166 59q-94 0 -184 -35q-20 -8 -43 -19t-36 -16.5t-24 -5.5q-25 0 -41 17.5t-16 42.5q0 45 100 88q115 49 261 49q184 0 270 -98q78 -92 78 -252v-541q0 -29 -22.5 -50t-53.5 -21q-29 0 -51.5 19t-24.5 46 q-125 -66 -270 -65q-135 0 -233.5 70.5t-98.5 201.5zM147 1331q0 41 46 86q55 59 143 60q80 0 162 -54q8 -6 25.5 -17t25.5 -16.5t22.5 -12.5t26.5 -10t27 -3q45 0 84 46t63 46q23 0 36 -15t13 -40q0 -43 -43 -86q-53 -57 -143 -58q-76 0 -162 56q-6 4 -24.5 15t-25.5 16.5 t-22.5 11.5t-28 9t-26.5 3q-47 0 -85 -45t-62 -45q-23 0 -37.5 15.5t-14.5 37.5zM229 260q0 -80 69 -121t165 -41q113 0 227 60v288q-205 -8 -305 -36q-156 -39 -156 -150z" />
<glyph unicode="&#xe4;" horiz-adv-x="974" d="M88 252q0 170 188 242q115 45 414 67v29q0 117 -47 172q-51 59 -166 59q-94 0 -184 -35q-20 -8 -43 -19t-36 -16.5t-24 -5.5q-25 0 -41 17.5t-16 42.5q0 45 100 88q115 49 261 49q184 0 270 -98q78 -92 78 -252v-541q0 -29 -22.5 -50t-53.5 -21q-29 0 -51.5 19t-24.5 46 q-125 -66 -270 -65q-135 0 -233.5 70.5t-98.5 201.5zM205 1368q0 37 26.5 62.5t63.5 25.5q39 0 64.5 -25.5t25.5 -62.5q0 -39 -25.5 -65.5t-64.5 -26.5q-37 0 -63.5 26.5t-26.5 65.5zM229 260q0 -80 69 -121t165 -41q113 0 227 60v288q-205 -8 -305 -36q-156 -39 -156 -150z M590 1368q0 37 26.5 62.5t63.5 25.5t63.5 -25.5t26.5 -62.5q0 -39 -26.5 -65.5t-63.5 -26.5t-63.5 26.5t-26.5 65.5z" />
<glyph unicode="&#xe5;" horiz-adv-x="974" d="M88 252q0 170 188 242q115 45 414 67v29q0 117 -47 172q-51 59 -166 59q-94 0 -184 -35q-20 -8 -43 -19t-36 -16.5t-24 -5.5q-25 0 -41 17.5t-16 42.5q0 45 100 88q115 49 261 49q184 0 270 -98q78 -92 78 -252v-541q0 -29 -22.5 -50t-53.5 -21q-29 0 -51.5 19t-24.5 46 q-125 -66 -270 -65q-135 0 -233.5 70.5t-98.5 201.5zM229 260q0 -80 69 -121t165 -41q113 0 227 60v288q-205 -8 -305 -36q-156 -39 -156 -150zM260 1356q0 98 69.5 167.5t168 69.5t167 -69.5t68.5 -167.5q0 -100 -68.5 -169t-167 -69t-168 68.5t-69.5 169.5zM336 1356 q0 -70 47 -117t114.5 -47t114.5 47t47 117q0 68 -47 116t-114.5 48t-114.5 -48.5t-47 -115.5z" />
<glyph unicode="&#xe6;" horiz-adv-x="1650" d="M88 248q0 76 42 130t125 84t181.5 44t233.5 20v64q0 119 -47 176q-49 61 -158 61q-88 0 -180 -36q-18 -8 -39 -19.5t-33 -17.5t-25 -6q-23 0 -39 17t-16 40q0 45 96 88q111 49 252 49q131 0 205 -65q57 -49 82 -140q55 96 149.5 150.5t212.5 54.5q199 0 322 -129 q113 -119 113 -301q0 -37 -21.5 -58.5t-58.5 -21.5h-660q6 -133 78 -221q92 -115 262 -115q121 0 219 51q12 6 27.5 15.5t23 13.5t16.5 7t17 3q25 0 41.5 -17t16.5 -42q0 -43 -78 -80q-129 -68 -293 -67q-236 0 -377 161q-158 -162 -366 -161q-147 0 -235.5 76.5 t-88.5 191.5zM231 252q0 -68 60 -115t164 -47q156 0 274 129q-55 92 -57 213q-440 -12 -441 -180zM825 526h594q-6 133 -76 209q-82 92 -213 92q-147 0 -231 -100q-68 -76 -74 -201z" />
<glyph unicode="&#xe7;" horiz-adv-x="964" d="M92 463q0 180 105 305q145 174 395 174q129 0 227 -49q70 -33 70 -80q0 -25 -17.5 -42t-44.5 -17q-12 0 -71 26q-76 35 -164 35q-164 0 -266 -119q-82 -94 -82 -233q0 -160 94 -260q94 -98 256 -99q100 0 168 29q14 6 28.5 14.5t23.5 11.5t20 3q25 0 42 -18.5t17 -43.5 q0 -47 -86 -82q-90 -33 -186 -38l2 -52q80 -6 131 -46.5t51 -106.5q0 -92 -76 -136.5t-180 -44.5q-47 0 -74 9q-35 12 -35 41q0 16 12.5 28.5t28.5 12.5q8 0 32 -3.5t44 -3.5q59 0 102 24t43 75q0 43 -36.5 64.5t-90.5 21.5q-49 0 -43 49l7 70q-201 12 -320 137 q-127 133 -127 344z" />
<glyph unicode="&#xe8;" horiz-adv-x="1073" d="M92 473q0 201 123 334q125 135 338 135q203 0 321 -129q113 -119 113 -301q0 -39 -21.5 -65.5t-58.5 -26.5h-659q12 -125 80 -205q96 -113 258 -113q127 0 221 50q70 36 84 36q25 0 41 -18t16 -43q0 -39 -76 -80q-129 -68 -292 -67q-231 0 -367 151q-121 131 -121 342z M248 528h594q-6 127 -76 203q-82 90 -213 90q-147 0 -231 -98q-64 -72 -74 -195zM397 1520q0 23 18.5 40t43.5 17q35 0 57 -43l158 -283q12 -23 12 -39q0 -20 -15.5 -34.5t-37.5 -14.5q-31 0 -53 37l-166 275q-16 27 -17 45z" />
<glyph unicode="&#xe9;" horiz-adv-x="1073" d="M92 473q0 201 123 334q125 135 338 135q203 0 321 -129q113 -119 113 -301q0 -39 -21.5 -65.5t-58.5 -26.5h-659q12 -125 80 -205q96 -113 258 -113q127 0 221 50q70 36 84 36q25 0 41 -18t16 -43q0 -39 -76 -80q-129 -68 -292 -67q-231 0 -367 151q-121 131 -121 342z M248 528h594q-6 127 -76 203q-82 90 -213 90q-147 0 -231 -98q-64 -72 -74 -195zM387 1212q0 16 12 39l156 283q23 43 57 43q27 0 44.5 -17.5t17.5 -39.5q0 -18 -17 -45l-165 -275q-23 -37 -54 -37q-20 0 -35.5 14.5t-15.5 34.5z" />
<glyph unicode="&#xea;" horiz-adv-x="1073" d="M92 473q0 201 123 334q125 135 338 135q203 0 321 -129q113 -119 113 -301q0 -39 -21.5 -65.5t-58.5 -26.5h-659q12 -125 80 -205q96 -113 258 -113q127 0 221 50q70 36 84 36q25 0 41 -18t16 -43q0 -39 -76 -80q-129 -68 -292 -67q-231 0 -367 151q-121 131 -121 342z M205 1245q0 20 24 45l254 260q24 25 47 25q25 0 50 -25l251 -260q27 -31 27 -45q0 -25 -16.5 -40t-39 -15t-38.5 16l-234 240l-231 -240q-16 -16 -39 -16q-25 0 -40 15.5t-15 39.5zM248 528h594q-6 127 -76 203q-82 90 -213 90q-147 0 -231 -98q-64 -72 -74 -195z" />
<glyph unicode="&#xeb;" horiz-adv-x="1073" d="M92 473q0 201 123 334q125 135 338 135q203 0 321 -129q113 -119 113 -301q0 -39 -21.5 -65.5t-58.5 -26.5h-659q12 -125 80 -205q96 -113 258 -113q127 0 221 50q70 36 84 36q25 0 41 -18t16 -43q0 -39 -76 -80q-129 -68 -292 -67q-231 0 -367 151q-121 131 -121 342z M248 528h594q-6 127 -76 203q-82 90 -213 90q-147 0 -231 -98q-64 -72 -74 -195zM248 1368q0 37 26.5 62.5t63.5 25.5q39 0 64.5 -25.5t25.5 -62.5q0 -39 -25.5 -65.5t-64.5 -26.5q-37 0 -63.5 26.5t-26.5 65.5zM633 1368q0 37 26.5 62.5t63.5 25.5t63.5 -25.5t26.5 -62.5 q0 -39 -26.5 -65.5t-63.5 -26.5t-63.5 26.5t-26.5 65.5z" />
<glyph unicode="&#xec;" horiz-adv-x="446" d="M82 1520q0 23 18.5 40t42.5 17q35 0 58 -43l157 -283q13 -23 13 -39q0 -20 -15.5 -34.5t-38.5 -14.5q-31 0 -53 37l-166 275q-16 27 -16 45zM147 51v819q0 31 23 51.5t53.5 20.5t53 -20.5t22.5 -51.5v-819q0 -29 -22.5 -50t-53 -21t-53.5 21.5t-23 49.5z" />
<glyph unicode="&#xed;" horiz-adv-x="446" d="M82 1212q0 16 12 39l156 283q20 43 57 43q27 0 44.5 -17.5t17.5 -39.5q0 -18 -17 -45l-166 -275q-23 -37 -53 -37q-20 0 -35.5 14.5t-15.5 34.5zM147 51v819q0 31 23 51.5t53.5 20.5t53 -20.5t22.5 -51.5v-819q0 -29 -22.5 -50t-53 -21t-53.5 21.5t-23 49.5z" />
<glyph unicode="&#xee;" horiz-adv-x="446" d="M-100 1245q0 20 24 45l254 260q24 25 47 25q25 0 49 -25l252 -260q27 -31 27 -45q0 -25 -16.5 -40t-39 -15t-38.5 16l-234 240l-231 -240q-16 -16 -39 -16q-25 0 -40 15.5t-15 39.5zM147 51v819q0 31 23 51.5t53.5 20.5t53 -20.5t22.5 -51.5v-819q0 -29 -22.5 -50 t-53 -21t-53.5 21.5t-23 49.5z" />
<glyph unicode="&#xef;" horiz-adv-x="446" d="M-57 1368q0 37 26.5 62.5t63.5 25.5q39 0 64.5 -25.5t25.5 -62.5q0 -39 -25.5 -65.5t-64.5 -26.5q-37 0 -63.5 26.5t-26.5 65.5zM147 51v819q0 31 23 51.5t53.5 20.5t53 -20.5t22.5 -51.5v-819q0 -29 -22.5 -50t-53 -21t-53.5 21.5t-23 49.5zM328 1368q0 37 26.5 62.5 t63.5 25.5t63.5 -25.5t26.5 -62.5q0 -39 -26.5 -65.5t-63.5 -26.5t-63.5 26.5t-26.5 65.5z" />
<glyph unicode="&#xf0;" horiz-adv-x="1046" d="M92 424q0 174 113 287q123 123 301 123q125 0 239 -72q-66 197 -231 368l-168 -129q-25 -16 -41 -16q-20 0 -34.5 15.5t-14.5 37.5q0 27 25 43l151 119q-82 78 -108 98q-25 20 -25 45q0 31 20.5 51.5t49.5 20.5q31 0 92 -55q53 -43 84 -76l149 115q20 16 37 16 q23 0 37 -15.5t14 -37.5q0 -27 -26 -43l-133 -102q331 -352 331 -760q0 -229 -124.5 -353t-311.5 -124q-172 0 -285 100q-141 123 -141 344zM231 424q0 -160 93 -246q78 -72 194 -72q129 0 212 89.5t83 261.5q0 90 -18 176q-131 84 -269 84q-129 0 -217 -92 q-78 -78 -78 -201z" />
<glyph unicode="&#xf1;" horiz-adv-x="1132" d="M147 51v817q0 31 23 52.5t53.5 21.5t53 -21.5t22.5 -52.5v-100q92 174 324 174q172 0 268 -84q111 -98 110 -309v-498q0 -29 -22.5 -50t-53 -21t-52 21.5t-21.5 49.5v465q0 166 -76 236q-63 59 -182 59q-164 0 -242 -141q-53 -100 -53 -244v-375q0 -29 -22.5 -50t-53 -21 t-53.5 21t-23 50zM207 1331q0 41 45 86q55 59 143 60q80 0 162 -54q8 -6 25.5 -17t25.5 -16.5t22.5 -12.5t27 -10t26.5 -3q45 0 84 46t63 46q23 0 36.5 -15t13.5 -40q0 -43 -43 -86q-53 -57 -144 -58q-76 0 -162 56q-6 4 -24.5 15t-25.5 16.5t-22.5 11.5t-27.5 9t-26 3 q-47 0 -85 -45t-63 -45q-23 0 -37 15.5t-14 37.5z" />
<glyph unicode="&#xf2;" horiz-adv-x="1163" d="M92 461q0 211 137 344q141 137 352.5 137t352.5 -137q139 -135 139 -344q0 -207 -139 -342q-139 -139 -352 -139t-353 139q-137 133 -137 342zM240 460.5q0 -147.5 92 -249.5q98 -109 250 -109q154 0 252 109q90 100 90 249.5t-90 250.5q-98 109 -252 108 q-152 0 -250 -108q-92 -103 -92 -250.5zM436 1520q0 23 18.5 40t43.5 17q35 0 57 -43l158 -283q12 -23 12 -39q0 -20 -15.5 -34.5t-37.5 -14.5q-33 0 -54 37l-165 275q-16 27 -17 45z" />
<glyph unicode="&#xf3;" horiz-adv-x="1163" d="M92 461q0 211 137 344q141 137 352.5 137t352.5 -137q139 -135 139 -344q0 -207 -139 -342q-139 -139 -352 -139t-353 139q-137 133 -137 342zM240 460.5q0 -147.5 92 -249.5q98 -109 250 -109q154 0 252 109q90 100 90 249.5t-90 250.5q-98 109 -252 108 q-152 0 -250 -108q-92 -103 -92 -250.5zM436 1212q0 16 13 39l155 283q23 43 58 43q27 0 44 -17.5t17 -39.5q0 -18 -16 -45l-166 -275q-23 -37 -54 -37q-20 0 -35.5 14.5t-15.5 34.5z" />
<glyph unicode="&#xf4;" horiz-adv-x="1163" d="M92 461q0 211 137 344q141 137 352.5 137t352.5 -137q139 -135 139 -344q0 -207 -139 -342q-139 -139 -352 -139t-353 139q-137 133 -137 342zM240 460.5q0 -147.5 92 -249.5q98 -109 250 -109q154 0 252 109q90 100 90 249.5t-90 250.5q-98 109 -252 108 q-152 0 -250 -108q-92 -103 -92 -250.5zM254 1245q0 20 25 45l253 260q25 25 48 25q25 0 49 -25l252 -260q27 -31 26 -45q0 -25 -16.5 -40t-39 -15t-38.5 16l-233 240l-232 -240q-16 -16 -39 -16q-25 0 -40 15.5t-15 39.5z" />
<glyph unicode="&#xf5;" horiz-adv-x="1163" d="M92 461q0 211 137 344q141 137 352.5 137t352.5 -137q139 -135 139 -344q0 -207 -139 -342q-139 -139 -352 -139t-353 139q-137 133 -137 342zM240 460.5q0 -147.5 92 -249.5q98 -109 250 -109q154 0 252 109q90 100 90 249.5t-90 250.5q-98 109 -252 108 q-152 0 -250 -108q-92 -103 -92 -250.5zM242 1331q0 41 45 86q55 59 143 60q80 0 162 -54q8 -6 25.5 -17t25.5 -16.5t22.5 -12.5t27 -10t26.5 -3q45 0 84 46t63 46q23 0 36 -15t13 -40q0 -43 -43 -86q-53 -57 -143 -58q-76 0 -162 56q-6 4 -24.5 15t-25.5 16.5t-22.5 11.5 t-27.5 9t-27 3q-47 0 -85 -45t-62 -45q-23 0 -37 15.5t-14 37.5z" />
<glyph unicode="&#xf6;" horiz-adv-x="1163" d="M92 461q0 211 137 344q141 137 352.5 137t352.5 -137q139 -135 139 -344q0 -207 -139 -342q-139 -139 -352 -139t-353 139q-137 133 -137 342zM240 460.5q0 -147.5 92 -249.5q98 -109 250 -109q154 0 252 109q90 100 90 249.5t-90 250.5q-98 109 -252 108 q-152 0 -250 -108q-92 -103 -92 -250.5zM297 1368q0 37 26.5 62.5t63.5 25.5q39 0 64.5 -25.5t25.5 -62.5q0 -39 -25.5 -65.5t-64.5 -26.5q-37 0 -63.5 26.5t-26.5 65.5zM682 1368q0 37 26.5 62.5t63.5 25.5t63.5 -25.5t26.5 -62.5q0 -39 -26.5 -65.5t-63.5 -26.5 t-63.5 26.5t-26.5 65.5z" />
<glyph unicode="&#xf7;" horiz-adv-x="1191" d="M72 723q0 29 20.5 49.5t46.5 20.5h912q29 0 49 -20.5t20 -49.5q0 -31 -20.5 -51.5t-48.5 -20.5h-912q-29 0 -48 20.5t-19 51.5zM500 1163q0 39 27.5 65.5t68.5 26.5q39 0 65.5 -26.5t26.5 -65.5t-26.5 -66.5t-65.5 -27.5q-41 0 -68.5 27.5t-27.5 66.5zM502 281 q0 41 26.5 68.5t67.5 27.5t67.5 -27.5t26.5 -68.5q0 -39 -27.5 -66t-66.5 -27t-66.5 27t-27.5 66z" />
<glyph unicode="&#xf8;" horiz-adv-x="1179" d="M92 461q0 211 137 344q141 137 353 137q162 0 292 -88l64 74q12 14 31 14q39 0 39 -39q0 -16 -11 -26l-63 -74q139 -135 139 -342t-139 -342q-139 -139 -352 -139q-162 0 -285 81l-57 -67q-14 -14 -33 -14q-16 0 -27.5 11t-11.5 27q0 14 12 27l56 66q-144 143 -144 350z M240 461q0 -145 86 -244l460 535q-86 68 -204 67q-152 0 -250 -108q-92 -103 -92 -250zM385 164q88 -61 197 -62q154 0 252 109q90 100 90 250q0 139 -80 237z" />
<glyph unicode="&#xf9;" horiz-adv-x="1118" d="M133 391v479q0 31 21.5 51.5t54.5 20.5q31 0 52.5 -20.5t21.5 -51.5v-467q0 -111 39 -180q61 -111 237 -110.5t238 110.5q37 66 37 180v467q0 31 22.5 51.5t53 20.5t53 -20.5t22.5 -51.5v-479q0 -160 -70 -262q-98 -150 -356 -149q-256 0 -358 149q-68 104 -68 262z M414 1520q0 23 18.5 40t42.5 17q35 0 57 -43l158 -283q12 -23 12 -39q0 -20 -15 -34.5t-38 -14.5q-31 0 -53 37l-166 275q-16 27 -16 45z" />
<glyph unicode="&#xfa;" horiz-adv-x="1118" d="M133 391v479q0 31 21.5 51.5t54.5 20.5q31 0 52.5 -20.5t21.5 -51.5v-467q0 -111 39 -180q61 -111 237 -110.5t238 110.5q37 66 37 180v467q0 31 22.5 51.5t53 20.5t53 -20.5t22.5 -51.5v-479q0 -160 -70 -262q-98 -150 -356 -149q-256 0 -358 149q-68 104 -68 262z M414 1212q0 16 12 39l156 283q20 43 57 43q27 0 44 -17.5t17 -39.5q0 -18 -16 -45l-166 -275q-23 -37 -53 -37q-20 0 -35.5 14.5t-15.5 34.5z" />
<glyph unicode="&#xfb;" horiz-adv-x="1118" d="M133 391v479q0 31 21.5 51.5t54.5 20.5q31 0 52.5 -20.5t21.5 -51.5v-467q0 -111 39 -180q61 -111 237 -110.5t238 110.5q37 66 37 180v467q0 31 22.5 51.5t53 20.5t53 -20.5t22.5 -51.5v-479q0 -160 -70 -262q-98 -150 -356 -149q-256 0 -358 149q-68 104 -68 262z M231 1245q0 20 25 45l254 260q24 25 47 25q25 0 49 -25l252 -260q27 -31 27 -45q0 -25 -16.5 -40t-39 -15t-38.5 16l-234 240l-231 -240q-16 -16 -39 -16q-25 0 -40.5 15.5t-15.5 39.5z" />
<glyph unicode="&#xfc;" horiz-adv-x="1118" d="M133 391v479q0 31 21.5 51.5t54.5 20.5q31 0 52.5 -20.5t21.5 -51.5v-467q0 -111 39 -180q61 -111 237 -110.5t238 110.5q37 66 37 180v467q0 31 22.5 51.5t53 20.5t53 -20.5t22.5 -51.5v-479q0 -160 -70 -262q-98 -150 -356 -149q-256 0 -358 149q-68 104 -68 262z M276 1368q0 37 27 62.5t64 25.5q39 0 64.5 -25.5t25.5 -62.5q0 -39 -25.5 -65.5t-64.5 -26.5q-37 0 -64 26.5t-27 65.5zM662 1368q0 37 26.5 62.5t63 25.5t63.5 -25.5t27 -62.5q0 -39 -27 -65.5t-63.5 -26.5t-63 26.5t-26.5 65.5z" />
<glyph unicode="&#xfd;" horiz-adv-x="942" d="M14 862q0 35 23.5 58.5t58.5 23.5q59 0 78 -53l315 -754l279 740q27 67 80 67q33 0 56.5 -23.5t23.5 -56.5q0 -25 -17 -65l-333 -848q-166 -424 -461 -424q-31 0 -52.5 21.5t-21.5 50.5q0 31 20.5 52t53.5 21q102 0 170.5 67.5t128.5 205.5l-383 860q-18 43 -19 57z M328 1212q0 16 12 39l156 283q20 43 57 43q27 0 44 -17.5t17 -39.5q0 -18 -16 -45l-166 -275q-23 -37 -53 -37q-20 0 -35.5 14.5t-15.5 34.5z" />
<glyph unicode="&#xfe;" horiz-adv-x="1075" d="M147 -408v1747q0 31 23 52.5t53.5 21.5t53 -21.5t22.5 -52.5v-407q72 10 145 10q256 0 398 -133q141 -129 141 -346q0 -213 -115 -338q-137 -145 -354 -145q-127 0 -215 40v-428q0 -31 -22.5 -51t-53 -20t-53.5 20.5t-23 50.5zM299 145q86 -43 201 -43q147 0 241 95 q92 92 93 266q0 164 -99 258q-100 100 -276 100q-90 0 -160 -12v-664z" />
<glyph unicode="&#xff;" horiz-adv-x="942" d="M14 862q0 35 23.5 58.5t58.5 23.5q59 0 78 -53l315 -754l279 740q27 67 80 67q33 0 56.5 -23.5t23.5 -56.5q0 -25 -17 -65l-333 -848q-166 -424 -461 -424q-31 0 -52.5 21.5t-21.5 50.5q0 31 20.5 52t53.5 21q102 0 170.5 67.5t128.5 205.5l-383 860q-18 43 -19 57z M188 1368q0 37 27 62.5t64 25.5q39 0 64.5 -25.5t25.5 -62.5q0 -39 -25.5 -65.5t-64.5 -26.5q-37 0 -64 26.5t-27 65.5zM573 1368q0 37 27 62.5t63.5 25.5t63.5 -25.5t27 -62.5q0 -39 -27 -65.5t-63.5 -26.5t-63.5 26.5t-27 65.5z" />
<glyph unicode="&#x152;" horiz-adv-x="2465" d="M96 694q0 303 215 512t516 209q164 0 310.5 -68.5t248.5 -191.5v160q0 33 25 56.5t57 23.5h863q29 0 50 -21.5t21 -50.5q0 -31 -21.5 -52.5t-49.5 -21.5h-781v-477h674q31 0 51.5 -21.5t20.5 -52.5q0 -29 -20.5 -50t-51.5 -21h-674v-482h781q29 0 50 -22.5t21 -51 t-21.5 -50t-49.5 -21.5h-863q-33 0 -57.5 23.5t-24.5 56.5v153q-102 -121 -247.5 -187t-311.5 -66q-301 0 -516 206.5t-215 507.5zM270 694.5q0 -229.5 162 -396.5t393.5 -167t394 167t162.5 396.5t-162.5 398.5t-394.5 169q-229 0 -392 -169t-163 -398.5z" />
<glyph unicode="&#x153;" horiz-adv-x="1906" d="M92 461q0 211 137 344q141 137 352.5 137t352.5 -137q23 -23 59 -72q16 31 56 74q125 135 337 135q203 0 322 -129q113 -119 113 -301q0 -39 -21.5 -65.5t-58.5 -26.5h-660q12 -125 80 -205q96 -113 258 -113q127 0 221 50q70 36 84 36q25 0 41.5 -18t16.5 -43 q0 -39 -76 -80q-129 -68 -293 -67q-231 0 -366 151q-25 25 -50 64q-23 -35 -63 -76q-139 -139 -352 -139t-353 139q-137 133 -137 342zM240 460.5q0 -147.5 92 -249.5q98 -109 250 -109q154 0 252 109q90 100 90 249.5t-90 250.5q-98 109 -252 108q-152 0 -250 -108 q-92 -103 -92 -250.5zM1081 528h594q-6 127 -76 203q-82 90 -213 90q-147 0 -231 -98q-64 -72 -74 -195z" />
<glyph unicode="&#x178;" horiz-adv-x="1157" d="M2 1335q0 33 22.5 55.5t57.5 22.5q43 0 72 -41l424 -596l426 596q29 41 71 41q33 0 56.5 -22.5t23.5 -55.5q0 -28 -16 -57l-480 -666v-553q0 -33 -24.5 -56t-57 -23t-57 23.5t-24.5 55.5v553l-476 668q-18 29 -18 55zM295 1831q0 37 26.5 62.5t63.5 25.5q39 0 64.5 -25.5 t25.5 -62.5q0 -39 -25.5 -65.5t-64.5 -26.5q-37 0 -63.5 26.5t-26.5 65.5zM680 1831q0 37 26.5 62.5t63.5 25.5t63.5 -25.5t26.5 -62.5q0 -39 -26.5 -65.5t-63.5 -26.5t-63.5 26.5t-26.5 65.5z" />
<glyph unicode="&#x2c6;" horiz-adv-x="854" d="M100 1245q0 20 25 45l254 260q24 25 47 25q25 0 49 -25l252 -260q27 -23 27 -45q0 -25 -16.5 -40t-39 -15t-39.5 16l-233 240l-231 -240q-16 -16 -39 -16q-25 0 -40.5 15.5t-15.5 39.5z" />
<glyph unicode="&#x2dc;" horiz-adv-x="854" d="M88 1331q0 41 45 86q55 59 143 60q72 0 154 -54q6 -4 21.5 -14t22.5 -14t20.5 -11.5t22.5 -10.5t20.5 -6t23.5 -3q47 0 82 39q8 6 18.5 18.5t16.5 18.5t15 11t20 5q23 0 36 -15t13 -40q0 -43 -43 -86q-53 -57 -144 -58q-68 0 -153 56q-90 55 -131 55q-49 0 -84 -39 q-6 -6 -16.5 -18.5t-16.5 -17.5t-15 -10t-20 -5q-23 0 -37 15.5t-14 37.5z" />
<glyph unicode="&#x2000;" horiz-adv-x="1001" />
<glyph unicode="&#x2001;" horiz-adv-x="2003" />
<glyph unicode="&#x2002;" horiz-adv-x="1001" />
<glyph unicode="&#x2003;" horiz-adv-x="2003" />
<glyph unicode="&#x2004;" horiz-adv-x="667" />
<glyph unicode="&#x2005;" horiz-adv-x="500" />
<glyph unicode="&#x2006;" horiz-adv-x="333" />
<glyph unicode="&#x2007;" horiz-adv-x="333" />
<glyph unicode="&#x2008;" horiz-adv-x="250" />
<glyph unicode="&#x2009;" horiz-adv-x="400" />
<glyph unicode="&#x200a;" horiz-adv-x="111" />
<glyph unicode="&#x2010;" horiz-adv-x="1024" d="M174 594q0 29 20.5 49.5t49.5 20.5h536q29 0 49.5 -20.5t20.5 -49.5t-20.5 -50.5t-49.5 -21.5h-536q-29 0 -49.5 21.5t-20.5 50.5z" />
<glyph unicode="&#x2011;" horiz-adv-x="1024" d="M174 594q0 29 20.5 49.5t49.5 20.5h536q29 0 49.5 -20.5t20.5 -49.5t-20.5 -50.5t-49.5 -21.5h-536q-29 0 -49.5 21.5t-20.5 50.5z" />
<glyph unicode="&#x2012;" horiz-adv-x="1024" d="M174 594q0 29 20.5 49.5t49.5 20.5h536q29 0 49.5 -20.5t20.5 -49.5t-20.5 -50.5t-49.5 -21.5h-536q-29 0 -49.5 21.5t-20.5 50.5z" />
<glyph unicode="&#x2013;" horiz-adv-x="1433" d="M174 516q0 29 20.5 50.5t49.5 21.5h946q29 0 49.5 -21.5t20.5 -50.5q0 -31 -20.5 -51.5t-49.5 -20.5h-946q-29 0 -49.5 20.5t-20.5 51.5z" />
<glyph unicode="&#x2014;" horiz-adv-x="2519" d="M174 516q0 29 20.5 50.5t49.5 21.5h2031q29 0 49.5 -21.5t20.5 -50.5q0 -31 -20.5 -51.5t-49.5 -20.5h-2031q-29 0 -49.5 20.5t-20.5 51.5z" />
<glyph unicode="&#x2018;" horiz-adv-x="428" d="M109 1194q0 90 63.5 154.5t114.5 64.5q28 0 28 -29q0 -18 -33.5 -48.5t-33.5 -63.5q0 -23 35.5 -51.5t35.5 -71.5q0 -39 -24.5 -65.5t-71.5 -26.5q-55 0 -84.5 36.5t-29.5 100.5z" />
<glyph unicode="&#x2019;" horiz-adv-x="428" d="M109 1323q0 39 24.5 65.5t71.5 26.5q55 0 84.5 -37t29.5 -100q0 -90 -62 -154.5t-114 -64.5q-30 -1 -30 28q0 18 34.5 49t34.5 64q0 23 -36.5 51.5t-36.5 71.5z" />
<glyph unicode="&#x201a;" horiz-adv-x="401" d="M100 72q0 39 25 65.5t72 26.5q55 0 84.5 -37t29.5 -100q0 -90 -62.5 -156t-113.5 -66q-31 0 -31 29q0 20 35 51t35 62q0 23 -37 52.5t-37 72.5z" />
<glyph unicode="&#x201c;" horiz-adv-x="743" d="M109 1194q0 90 63.5 154.5t114.5 64.5q28 0 28 -29q0 -18 -33.5 -48.5t-33.5 -63.5q0 -23 35.5 -51.5t35.5 -71.5q0 -39 -24.5 -65.5t-71.5 -26.5q-55 0 -84.5 36.5t-29.5 100.5zM424 1194q0 90 63.5 154.5t114.5 64.5q29 0 29 -29q0 -18 -34 -48.5t-34 -63.5 q0 -23 36 -51.5t36 -71.5q0 -39 -24.5 -65.5t-71.5 -26.5q-55 0 -85 36.5t-30 100.5z" />
<glyph unicode="&#x201d;" horiz-adv-x="743" d="M109 1323q0 39 24.5 65.5t71.5 26.5q55 0 84.5 -37t29.5 -100q0 -90 -62 -154.5t-114 -64.5q-30 -1 -30 28q0 18 34.5 49t34.5 64q0 23 -36.5 51.5t-36.5 71.5zM424 1323q0 39 24.5 65.5t71.5 26.5q55 0 85 -37t30 -100q0 -90 -63.5 -154.5t-114.5 -64.5q-29 -1 -29 28 q0 18 34 49t34 64q0 23 -36 51.5t-36 71.5z" />
<glyph unicode="&#x201e;" horiz-adv-x="716" d="M100 72q0 39 25 65.5t72 26.5q55 0 84.5 -37t29.5 -100q0 -90 -62.5 -156t-113.5 -66q-31 0 -31 29q0 20 35 51t35 62q0 23 -37 52.5t-37 72.5zM416 72q0 39 24.5 65.5t71.5 26.5q55 0 85 -37t30 -100q0 -90 -63.5 -156t-114.5 -66q-29 0 -29 29q0 20 33.5 51t33.5 62 q0 23 -35.5 52.5t-35.5 72.5z" />
<glyph unicode="&#x2022;" horiz-adv-x="1044" d="M109 698q0 170 121.5 292t291.5 122t292 -122t122 -292t-122 -291.5t-292 -121.5t-291.5 121.5t-121.5 291.5z" />
<glyph unicode="&#x2026;" horiz-adv-x="1400" d="M100 76q0 39 28 66.5t66.5 27.5t66.5 -27.5t28 -66.5t-28 -66.5t-66.5 -27.5t-66.5 27.5t-28 66.5zM612 76q0 39 28 66.5t66.5 27.5t66.5 -27.5t28 -66.5t-28 -66.5t-66.5 -27.5t-66.5 27.5t-28 66.5zM1124 76q0 39 28 66.5t66.5 27.5t65.5 -27.5t27 -66.5t-27 -66.5 t-65.5 -27.5t-66.5 27.5t-28 66.5z" />
<glyph unicode="&#x202f;" horiz-adv-x="400" />
<glyph unicode="&#x2039;" horiz-adv-x="696" d="M80 461q0 24 20 49l398 410q18 20 49 20q29 0 49 -19.5t20 -46.5q0 -29 -20 -49l-352 -364l352 -365q20 -20 20 -49t-20 -47t-49 -18q-31 0 -49 20l-398 410q-20 25 -20 49z" />
<glyph unicode="&#x203a;" horiz-adv-x="696" d="M80 47q0 25 20 49l351 365l-351 364q-20 25 -20 49q0 27 19.5 46.5t47.5 19.5q31 0 52 -20l395 -410q23 -23 22.5 -49.5t-22.5 -48.5l-395 -410q-21 -20 -49.5 -20t-49 18t-20.5 47z" />
<glyph unicode="&#x205f;" horiz-adv-x="500" />
<glyph unicode="&#x20ac;" d="M-23 559.5q0 18.5 12.5 31.5t30.5 13h84q-4 61 -4 94q0 43 6 90h-86q-18 0 -30.5 12.5t-12.5 31t12.5 33t30.5 14.5h103q61 236 256.5 385t431.5 149q186 0 336 -70q96 -41 96 -100q0 -33 -22.5 -54.5t-53.5 -21.5q-12 0 -31.5 10.5t-51 27t-64.5 28.5q-96 35 -211 35 q-172 0 -315.5 -108.5t-200.5 -280.5h717q18 0 30.5 -14.5t12.5 -33t-12.5 -31t-30.5 -12.5h-738q-6 -45 -6 -90q0 -51 6 -94h623q18 0 30.5 -13t12.5 -31.5t-12.5 -32t-30.5 -13.5h-604q53 -178 198.5 -281.5t321.5 -103.5q123 0 211 33q35 12 69.5 29.5t55 27.5t35.5 10 q31 0 50 -21.5t19 -53.5q0 -55 -96 -103q-162 -72 -344 -71q-252 0 -443.5 144t-246.5 390h-101q-18 0 -30.5 13.5t-12.5 32z" />
<glyph unicode="&#x2122;" horiz-adv-x="1591" d="M57 1415q0 18 12.5 31.5t30.5 13.5h512q18 0 30.5 -12t12.5 -33q0 -18 -12.5 -30.5t-30.5 -12.5h-206v-608q0 -20 -14.5 -33.5t-35 -13.5t-34 13t-13.5 34v608h-209q-16 0 -29.5 13.5t-13.5 29.5zM739 764v657q0 45 52 45q35 0 59 -39l254 -419l256 419q25 39 59 39 q51 0 51 -45v-657q0 -20 -13 -33.5t-34 -13.5q-18 0 -32.5 13t-14.5 34v518l-227 -375q-16 -28 -45 -28q-27 0 -43 28l-227 375v-518q0 -20 -14.5 -33.5t-33.5 -13.5q-20 0 -33.5 13t-13.5 34z" />
<glyph unicode="&#x25fc;" horiz-adv-x="942" d="M0 0v942h942v-942h-942z" />
</font>
</defs>
</svg>
