<?xml version="1.0" standalone="no"?>
<!DOCTYPE svg PUBLIC "-//W3C//DTD SVG 1.1//EN" "http://www.w3.org/Graphics/SVG/1.1/DTD/svg11.dtd" >
<svg xmlns="http://www.w3.org/2000/svg" xmlns:xlink="http://www.w3.org/1999/xlink" version="1.1">
<metadata></metadata>
<defs>
<font id="houschkaroundedaltregular_10" horiz-adv-x="1228" >
<font-face units-per-em="2048" ascent="1536" descent="-512" />
<missing-glyph horiz-adv-x="514" />
<glyph unicode="&#xfb01;" horiz-adv-x="950" d="M53 883q0 14 10.5 24.5t24.5 10.5h115v155q0 340 289 340q106 0 215 -43q72 -33 71.5 -67.5t-43.5 -34.5q-8 0 -69 30q-74 37 -164 37q-113 0 -161 -69.5t-48 -202.5v-145h457q45 0 45 -44v-851q0 -18 -13.5 -30.5t-32 -12.5t-31.5 12t-13 31v823h-412v-823 q0 -18 -13.5 -30.5t-32 -12.5t-31.5 12t-13 31v823h-115q-35 0 -35 37z" />
<glyph unicode="&#xfb02;" horiz-adv-x="952" d="M53 883q0 14 10.5 24.5t24.5 10.5h115v157q0 340 291 340q131 0 213 -43q53 -27 71.5 -55.5t18.5 -75.5v-1218q0 -18 -13.5 -30.5t-32 -12.5t-30.5 12t-12 31v1216q0 37 -56.5 67.5t-148.5 30.5q-113 0 -162 -68.5t-49 -203.5v-147h305q14 0 24.5 -10.5t10.5 -24.5 q0 -37 -35 -37h-305v-823q0 -18 -13.5 -30.5t-32 -12.5t-31.5 12t-13 31v823h-115q-35 0 -35 37z" />
<glyph unicode="&#xfb03;" horiz-adv-x="1464" d="M53 883q0 14 10.5 24.5t24.5 10.5h115v174q0 305 252 305q100 0 180 -43q63 -33 63 -70q0 -35 -30 -35q-6 0 -12.5 4t-22 14.5t-31.5 18.5q-55 31 -129 31q-100 0 -140 -58.5t-40 -171.5v-169h424v155q0 340 291 340q106 0 213 -43q72 -31 71 -67q0 -35 -41 -35 q-8 0 -71 30q-74 37 -164 37q-113 0 -161 -69.5t-48 -202.5v-145h457q45 0 45 -44v-851q0 -18 -13.5 -30.5t-32 -12.5t-31.5 12t-13 31v823h-412v-823q0 -18 -13.5 -30.5t-32 -12.5t-31.5 12t-13 31v823h-424v-823q0 -18 -13.5 -30.5t-32 -12.5t-31.5 12t-13 31v823h-115 q-35 0 -35 37z" />
<glyph unicode="&#xfb04;" horiz-adv-x="1468" d="M53 883q0 14 10.5 24.5t24.5 10.5h115v174q0 305 252 305q100 0 180 -43q63 -33 63 -70q0 -35 -30 -35q-6 0 -12.5 4t-22 14.5t-31.5 18.5q-55 31 -129 31q-100 0 -140 -58.5t-40 -171.5v-169h424v157q0 340 291 340q127 0 209 -43q55 -27 75.5 -56.5t20.5 -74.5v-1218 q0 -18 -13.5 -30.5t-32 -12.5t-31.5 12t-13 31v1216q0 37 -56.5 67.5t-148.5 30.5q-211 0 -211 -272v-147h289q14 0 24 -10.5t10 -24.5q0 -37 -34 -37h-289v-823q0 -18 -13.5 -30.5t-32 -12.5t-31.5 12t-13 31v823h-424v-823q0 -18 -13.5 -30.5t-32 -12.5t-31.5 12t-13 31 v823h-115q-35 0 -35 37z" />
<glyph horiz-adv-x="0" />
<glyph unicode="&#xd;" horiz-adv-x="681" />
<glyph unicode=" "  horiz-adv-x="514" />
<glyph unicode="&#x09;" horiz-adv-x="514" />
<glyph unicode="&#xa0;" horiz-adv-x="514" />
<glyph unicode="!" horiz-adv-x="417" d="M145 1270q0 143 64 143q65 0 65 -143q0 -35 -4 -111t-4 -92l-24 -680q-2 -45 -33 -45q-29 0 -31 45l-24 680q0 16 -4.5 92t-4.5 111zM150 43q0 25 16 41t43 16t43 -16t16 -41q0 -27 -16 -44t-43 -17t-43 17t-16 44z" />
<glyph unicode="&#x22;" horiz-adv-x="501" d="M84 1358q0 57 45 57q47 0 47 -57q0 -33 -2 -78l-12 -244q-2 -37 -33 -37q-27 0 -31 37l-12 244q-2 45 -2 78zM326 1358q0 57 45 57q47 0 47 -57q0 -33 -2 -78l-13 -244q-1 -37 -32 -37q-27 0 -31 37l-12 244q-2 45 -2 78z" />
<glyph unicode="#" horiz-adv-x="1392" d="M0 309.5q0 14.5 10 25.5t27 11h325l87 416h-312q-14 0 -25.5 11t-11.5 28q0 14 11.5 25.5t25.5 11.5h328l84 401q4 16 17.5 24.5t27.5 4.5q37 -8 29 -43l-82 -387h428l86 401q4 16 17 24.5t28 4.5q14 -2 22 -15.5t4 -27.5l-82 -387h312q16 0 26.5 -11.5t10.5 -25.5 q0 -16 -11.5 -27.5t-25.5 -11.5h-328l-86 -416h313q14 0 25.5 -11t11.5 -25.5t-11 -26t-26 -11.5h-329l-86 -405q-8 -33 -43 -27q-35 8 -29 43l82 389h-428l-86 -405q-8 -33 -43 -27q-35 8 -29 43l82 389h-309q-16 0 -26.5 11.5t-10.5 26zM438 346h428l86 416h-428z" />
<glyph unicode="$" d="M172 143q0 20 13.5 33.5t33.5 13.5q12 0 25.5 -10t44 -31.5t71.5 -39.5q104 -49 244 -50q168 0 258 78t90 211q0 143 -155 217q-55 27 -190.5 66t-211.5 71q-217 94 -217 285q0 154 105.5 240t304.5 94v125q0 27 28 27q27 0 27 -27v-125q156 -2 279 -57q70 -33 69 -64 q0 -41 -43 -41q-10 0 -25.5 7.5t-41 19.5t-50.5 20q-115 37 -208 37q-348 0 -349 -256q0 -137 187 -213q47 -18 193.5 -61t222.5 -84q174 -94 174 -273q0 -170 -110 -267t-298 -107v-117q0 -29 -27 -29q-29 0 -28 29v115q-223 6 -375 108q-41 27 -41 55z" />
<glyph unicode="%" horiz-adv-x="1292" d="M51 1098q0 129 92.5 221t221.5 92q127 0 220 -92t93 -221t-93 -221.5t-220 -92.5q-129 0 -221.5 91.5t-92.5 222.5zM106 1097.5q0 -106.5 76 -182t182.5 -75.5t181.5 75.5t75 182t-75 182.5t-181.5 76t-182.5 -76t-76 -182.5zM176 12q0 12 8 23l871 1356q14 20 30 20 q31 0 31 -31q0 -12 -8 -22l-870 -1358q-16 -20 -31 -20q-31 0 -31 32zM614 293q0 129 92.5 221t221.5 92q127 0 220 -92t93 -221t-93 -221t-220 -92q-129 0 -221.5 91t-92.5 222zM670 293q0 -109 74.5 -183.5t183.5 -74.5q106 0 180 74.5t74 183.5q0 106 -74 182t-180.5 76 t-182 -76t-75.5 -182z" />
<glyph unicode="&#x26;" horiz-adv-x="1308" d="M88 379q0 133 84 222t231 161q-94 182 -94 309q0 147 83 232.5t220 85.5q133 0 208 -74t75 -201q0 -31 -7 -59.5t-14.5 -50t-29 -47t-32.5 -41t-43 -38t-43 -32.5t-51 -31.5t-49.5 -27t-53.5 -29t-50 -25.5q72 -129 180.5 -259t221.5 -224q94 129 108 381q4 39 41 39 q18 0 31.5 -12.5t13.5 -32.5q0 -264 -121 -428q154 -118 265 -134q31 -6 30 -36q0 -47 -45 -47q-123 0 -311 147q-147 -147 -379 -147q-209 0 -339 103t-130 296zM178 377q0 -160 105.5 -243t279.5 -83q184 0 305 127q-254 215 -428 514q-127 -66 -194.5 -138.5 t-67.5 -176.5zM397 1071q0 -106 86 -268q4 2 55.5 27.5t65.5 33.5t57.5 34t60.5 44.5t43 47t35 60t9 66.5q0 94 -52 147.5t-146.5 53.5t-154 -66.5t-59.5 -179.5z" />
<glyph unicode="'" horiz-adv-x="260" d="M84 1358q0 57 45 57q47 0 47 -57q0 -33 -2 -78l-12 -244q-2 -37 -33 -37q-27 0 -31 37l-12 244q-2 45 -2 78z" />
<glyph unicode="(" horiz-adv-x="483" d="M106 602.5q0 550.5 244 917.5q16 23 39 22q45 0 45 -45q0 -18 -10 -37q-219 -356 -219 -858q0 -506 219 -858q10 -18 10 -37q0 -45 -45 -45q-25 0 -39 23q-244 367 -244 917.5z" />
<glyph unicode=")" horiz-adv-x="483" d="M49 -293q0 18 10 37q219 352 220 858q0 502 -220 858q-10 18 -10 37q0 45 45 45q23 0 39 -22q242 -369 242 -918t-242 -917q-16 -23 -39 -23q-45 0 -45 45z" />
<glyph unicode="*" horiz-adv-x="860" d="M102 1241q12 31 58 19q31 -10 82 -29l172 -66l-8 185q-2 47 -3 86q0 49 35 49t35 -49q0 -39 -2 -86l-8 -185l172 66q51 18 82 29q45 12 55 -19q12 -33 -35 -49q-10 -4 -36 -10.5t-46 -12.5l-178 -49l115 -145l53 -68q31 -37 2 -59q-31 -20 -57 16l-152 228l-102 -154 l-47 -74q-33 -35 -60 -16q-27 20 2 59q14 23 52 68l116 145l-262 72q-43 16 -35 49z" />
<glyph unicode="+" horiz-adv-x="1132" d="M72 723q0 16 12 29.5t29 13.5h409v410q0 16 12.5 28.5t30.5 12.5q16 0 29.5 -12.5t13.5 -28.5v-410h410q16 0 28.5 -13.5t12.5 -29.5q0 -18 -12.5 -30.5t-28.5 -12.5h-410v-410q0 -16 -13 -28.5t-30 -12.5q-18 0 -30.5 12.5t-12.5 28.5v410h-409q-16 0 -28.5 12.5 t-12.5 30.5z" />
<glyph unicode="," horiz-adv-x="321" d="M102 41q0 25 16.5 42t45.5 17q74 0 74 -92q0 -59 -40 -105t-73 -46q-19 0 -19 18q0 10 22 33.5t22 48.5q0 16 -24 36.5t-24 47.5z" />
<glyph unicode="-" horiz-adv-x="1001" d="M174 602q0 18 12.5 30.5t28.5 12.5h571q16 0 28.5 -12t12.5 -31q0 -16 -12.5 -28.5t-28.5 -12.5h-571q-16 0 -28.5 12.5t-12.5 28.5z" />
<glyph unicode="." horiz-adv-x="305" d="M102 41q0 27 17.5 43t44.5 16q25 0 41 -16t16 -43t-16.5 -43t-40.5 -16q-27 0 -44.5 16t-17.5 43z" />
<glyph unicode="/" horiz-adv-x="724" d="M-31 20q1 19 11 35l682 1325q14 33 45 33q18 0 31.5 -12t13.5 -31q0 -8 -11 -33l-682 -1327q-14 -31 -47 -30q-16 0 -29.5 12t-13.5 28z" />
<glyph unicode="0" d="M100 696.5q0 352.5 131 534.5t383 182q250 0 381 -182t131 -534.5t-131 -534.5t-381 -182q-252 0 -383 182t-131 534.5zM198.5 696q0.5 -317 108.5 -473q106 -156 307 -155q199 0 306 155q108 154 108 473q0 322 -108 475q-104 154 -306 154q-203 0 -307 -154 q-109 -158 -108.5 -475z" />
<glyph unicode="1" d="M256 1231q0 27 35 41l319 133q33 8 39 8q45 0 45 -47v-1280h271q16 0 28.5 -13.5t12.5 -29.5q0 -18 -12.5 -30.5t-28.5 -12.5h-658q-18 0 -30.5 12.5t-12.5 30.5q0 16 12.5 29.5t30.5 13.5h289v1219l-270 -109q-18 -8 -29 -8q-41 0 -41 43z" />
<glyph unicode="2" d="M174 47q0 141 27.5 221t97.5 152q76 80 251 178t218 129q158 115 158 283q0 125 -78 213q-98 109 -264 108q-115 0 -217 -49q-31 -14 -58.5 -32.5t-43 -28t-27.5 -9.5q-41 0 -41 43q0 25 43 56.5t88 50.5q127 51 262 51q205 0 332 -137q98 -109 98 -264q0 -201 -184 -342 q-53 -39 -221.5 -133.5t-241.5 -167.5q-53 -53 -73.5 -113.5t-20.5 -169.5h727q18 0 30.5 -13.5t12.5 -29.5q0 -18 -12.5 -30.5t-30.5 -12.5h-789q-43 0 -43 47z" />
<glyph unicode="3" d="M158 96q0 18 12 31.5t31 13.5q12 0 29.5 -7t44 -20.5t51.5 -21.5q88 -31 198 -31q170 0 270.5 87.5t100.5 230.5q0 207 -211 278q-68 23 -164 23q-47 0 -47 41t41 41q102 0 176 31q158 66 158 243q0 125 -86 208t-225 83q-111 0 -199 -41q-25 -12 -49.5 -26.5 t-37.5 -21.5t-24 -7q-18 0 -31.5 13t-13.5 30q0 23 18.5 38t61.5 38q127 63 279 63q180 0 289.5 -104.5t109.5 -261.5q0 -246 -238 -320q137 -35 211 -127t74 -227q0 -176 -126 -284.5t-331 -108.5q-129 0 -237 28q-135 39 -135 88z" />
<glyph unicode="4" d="M106 387q0 16 11 31l669 960q25 35 56 35q47 0 47 -49v-936h190q16 0 27.5 -12.5t11.5 -28.5t-11 -28.5t-28 -12.5h-190v-319q0 -18 -14.5 -32.5t-35 -14.5t-33.5 14t-13 33v319h-648q-16 0 -27.5 12.5t-11.5 28.5zM229 428h564v813z" />
<glyph unicode="5" d="M174 154q0 18 13.5 30.5t29.5 12.5q10 0 24.5 -10.5t38 -30t44.5 -31.5q100 -63 260 -64q164 0 268 105.5t104 263.5q0 160 -94 263.5t-244 103.5q-125 0 -221 -64q-33 -23 -63.5 -50.5t-46 -39.5t-27.5 -12q-41 0 -41 41q0 6 4 55l49 629q4 39 41 39h660 q18 0 29.5 -12.5t11.5 -31t-11.5 -30.5t-29.5 -12h-613l-45 -551q137 123 314 123q193 0 308.5 -127t115.5 -324q0 -193 -131 -321.5t-338 -128.5q-203 0 -330 83q-80 52 -80 91z" />
<glyph unicode="6" d="M154 629q0 96 10 188t44 205t89 195.5t155.5 139t231.5 56.5q147 0 248 -37q106 -41 106 -80q0 -18 -12 -31.5t-33 -13.5q-12 0 -58 21.5t-85 32.5q-78 23 -166 22q-293 0 -391 -358q-37 -135 -41 -351q127 227 385 228q203 0 315.5 -118t112.5 -310.5t-120 -315 t-316 -122.5q-129 0 -224.5 51t-148.5 143t-77.5 205t-24.5 250zM254 504q37 -438 375 -438q158 0 250 98t92 252q0 156 -89 250t-255 94q-127 0 -224.5 -69.5t-148.5 -186.5z" />
<glyph unicode="7" d="M166 1114v238q0 16 12.5 29.5t30.5 13.5h813q18 0 30.5 -13.5t12.5 -29.5q0 -14 -16 -47l-609 -1293q-16 -43 -61 -28q-20 6 -29.5 25.5t0.5 39.5l533 1114q31 74 75 146h-704v-195q0 -18 -13.5 -30.5t-32 -12.5t-30.5 12.5t-12 30.5z" />
<glyph unicode="8" d="M137 352q0 82 35 147.5t99.5 111.5t116.5 74t124 54q-68 27 -116 52.5t-100 65.5t-80 95.5t-28 122.5q0 158 113 248t313.5 90t314 -90t113.5 -248q0 -125 -91 -202t-236 -134q80 -33 135 -60.5t117.5 -73.5t94.5 -110.5t32 -142.5q0 -176 -127 -274t-351 -98 q-225 0 -352 97t-127 275zM233 358q0 -139 98.5 -218t285 -79t283.5 78t97 219q0 68 -31.5 122.5t-93 94t-121 65.5t-143.5 54q-166 -53 -270.5 -131t-104.5 -205zM283 1075q0 -59 29.5 -108t86 -85t104.5 -57.5t115 -44.5q147 53 238.5 121t91.5 170q0 125 -86 194.5 t-246 69.5q-162 0 -247.5 -68.5t-85.5 -191.5z" />
<glyph unicode="9" d="M158 975q0 193 120.5 315.5t317.5 122.5q129 0 224 -51t148.5 -143.5t78 -205t24.5 -249.5q0 -96 -10 -189.5t-45 -205t-90.5 -194.5t-155.5 -139t-231 -56q-147 0 -248 38q-106 37 -107 76q0 20 13.5 33.5t33.5 13.5q12 0 58.5 -21.5t85.5 -31.5q74 -23 166 -22 q291 0 389 356q37 129 41 352q-127 -227 -383 -227q-205 0 -317.5 116.5t-112.5 311.5zM254 977q0 -158 88 -252t254 -94q127 0 224.5 70.5t148.5 187.5q-33 438 -373 438q-158 0 -250 -98.5t-92 -251.5z" />
<glyph unicode=":" horiz-adv-x="321" d="M102 41q0 27 17.5 43t44.5 16q25 0 42 -16t17 -43t-17.5 -43t-41.5 -16q-27 0 -44.5 16t-17.5 43zM102 876.5q0 26.5 17.5 43t44.5 16.5q25 0 42 -16.5t17 -43t-17.5 -43t-41.5 -16.5q-27 0 -44.5 16.5t-17.5 43z" />
<glyph unicode=";" horiz-adv-x="321" d="M102 41q0 25 16.5 42t45.5 17q74 0 74 -92q0 -61 -39 -106t-74 -45q-19 0 -19 18q0 10 22 33.5t22 48.5q0 16 -24 36.5t-24 47.5zM104 876.5q0 26.5 17.5 43t44.5 16.5q25 0 42 -16.5t17 -43t-17.5 -43t-41.5 -16.5q-27 0 -44.5 16.5t-17.5 43z" />
<glyph unicode="&#x3c;" horiz-adv-x="1241" d="M92 723q0 45 55 68l900 409q25 8 32 8q20 0 32.5 -13t12.5 -34q0 -31 -30 -43l-883 -395l883 -395q31 -12 30 -43q0 -20 -13 -33.5t-32 -13.5q-16 0 -32 8l-900 409q-55 25 -55 68z" />
<glyph unicode="=" horiz-adv-x="1130" d="M72 473q0 16 12 29.5t29 13.5h905q16 0 28.5 -13.5t12.5 -29.5q0 -18 -12.5 -30.5t-28.5 -12.5h-905q-16 0 -28.5 12.5t-12.5 30.5zM72 973q0 16 12 29.5t29 13.5h905q16 0 28.5 -13.5t12.5 -29.5q0 -18 -12.5 -30.5t-28.5 -12.5h-905q-16 0 -28.5 12t-12.5 31z" />
<glyph unicode="&#x3e;" horiz-adv-x="1243" d="M117 285q0 31 30 43l883 395l-883 395q-31 12 -30 43q0 20 12 33.5t33 13.5q8 0 33 -8l899 -409q55 -23 55 -68q0 -43 -55 -68l-899 -409q-16 -8 -33 -8q-18 0 -31.5 13t-13.5 34z" />
<glyph unicode="?" horiz-adv-x="970" d="M43 1208q0 37 94 99q162 106 346 106q180 0 301 -110.5t121 -288.5q0 -115 -52 -185.5t-159 -148.5q-59 -43 -92 -71.5t-67.5 -83t-40.5 -115.5q-4 -47 -14.5 -66.5t-37.5 -19.5q-18 0 -30.5 14t-12.5 35q0 78 35 153q16 41 49 79t57.5 60.5t79 64.5t76.5 61 q117 98 117 223q0 143 -94 229t-240 86q-156 0 -293 -94q-23 -16 -45 -35.5t-33.5 -26t-23.5 -6.5q-16 0 -28.5 12.5t-12.5 28.5zM379 41q0 27 17.5 43t43.5 16q25 0 42.5 -16t17.5 -43t-17.5 -43t-42.5 -16q-27 0 -44 16t-17 43z" />
<glyph unicode="@" horiz-adv-x="1640" d="M104 694q0 295 223.5 508t534.5 213q293 0 484.5 -166t191.5 -442q0 -223 -99.5 -378t-252.5 -155q-115 0 -121 117q-92 -119 -283 -119q-115 0 -194 56q-94 63 -94 176q0 158 206 221q121 37 359 47q0 154 -72 225q-67 66 -182 66q-96 0 -166 -37q-20 -10 -36.5 -22.5 t-26 -17.5t-17.5 -5q-29 0 -29 27q0 25 76 61q86 45 199 45q135 0 217 -78q92 -86 92 -258v-360q0 -96 80 -96q121 0 207 134t86 349q0 258 -175 410.5t-450 152.5q-291 0 -498.5 -199.5t-207.5 -476.5q0 -309 199.5 -496.5t514.5 -187.5q242 0 437 74q80 33 86 33 q25 0 24 -25q0 -20 -88 -53q-213 -76 -459 -76q-336 0 -551 202t-215 531zM551 502q0 -86 70 -135q63 -47 161 -48q195 1 277 134v274q-217 -8 -346 -49q-162 -53 -162 -176z" />
<glyph unicode="A" horiz-adv-x="1263" d="M16 25q0 8 9 32l542 1307q18 49 65.5 49t65.5 -49l543 -1307q6 -14 6 -30q0 -47 -47 -47h-2q-34 0 -49 40l-148 355h-739l-149 -355q-12 -40 -50 -40h-2q-45 0 -45 45zM289 455h686l-344 825z" />
<glyph unicode="B" horiz-adv-x="1310" d="M160 47v1301q0 18 14 32.5t35 14.5h457q178 0 301 -90.5t123 -264.5q0 -229 -189 -311v-4q145 -27 224 -122t79 -234q0 -184 -132 -276.5t-329 -92.5h-534q-20 0 -34.5 14.5t-14.5 32.5zM258 82h471q164 0 269.5 71.5t107.5 225.5q0 123 -85 206t-241 83h-522v-586z M258 750h438q131 0 212 70.5t81 211.5q0 137 -96 209t-238 72h-397v-563z" />
<glyph unicode="C" horiz-adv-x="1355" d="M104 698q0 291 213 503t504 212q201 0 357 -78q88 -41 88 -82q0 -18 -13.5 -31.5t-31.5 -13.5q-12 0 -32 12.5t-54.5 32t-73.5 33.5q-109 39 -240 39q-250 0 -433 -186.5t-183 -440.5q0 -276 181 -453t437 -177q127 0 240 38q41 14 76 35t54 32t32 11q18 0 31.5 -13 t13.5 -32q0 -41 -88 -82q-154 -77 -354 -77h-5q-299 0 -509 200.5t-210 517.5z" />
<glyph unicode="D" horiz-adv-x="1507" d="M160 47v1301q0 18 14 32.5t35 14.5h450q385 0 586 -224q158 -180 158 -475q0 -391 -289 -573q-193 -123 -485 -123h-420q-20 0 -34.5 14.5t-14.5 32.5zM258 84h358q256 0 424 104q264 162 265 508q0 254 -144 418q-176 197 -520 197h-383v-1227z" />
<glyph unicode="E" horiz-adv-x="1206" d="M160 47v1301q0 18 14 32.5t35 14.5h891q16 0 28.5 -13.5t12.5 -29.5q0 -18 -12.5 -30.5t-28.5 -12.5h-842v-568h735q18 0 30.5 -13t12.5 -30q0 -18 -12 -31.5t-31 -13.5h-735v-567h842q16 0 28.5 -12.5t12.5 -30.5t-12.5 -30.5t-28.5 -12.5h-891q-20 0 -34.5 14.5 t-14.5 32.5z" />
<glyph unicode="F" horiz-adv-x="1128" d="M160 27v1321q0 18 14.5 32.5t34.5 14.5h825q18 0 30.5 -13.5t12.5 -29.5q0 -18 -12 -30.5t-31 -12.5h-776v-568h672q18 0 30.5 -13t12.5 -30q0 -18 -12.5 -31.5t-30.5 -13.5h-672v-626q0 -18 -14.5 -32.5t-35 -14.5t-34.5 14t-14 33z" />
<glyph unicode="G" horiz-adv-x="1511" d="M104 698q0 291 211 503t506 212q188 0 355 -78q88 -41 88 -82q0 -18 -13.5 -31.5t-31.5 -13.5q-16 0 -36 11.5t-58 33t-85 37.5q-104 35 -219 35q-252 0 -434 -186.5t-182 -440.5q0 -285 177 -457.5t439 -172.5q264 0 441 151v356h-467q-16 0 -28.5 12.5t-12.5 30.5 q0 16 12.5 30t28.5 14h514q45 0 45 -48v-587q0 -20 -12.5 -33.5t-32.5 -13.5q-47 0 -47 47v94q-193 -141 -443 -141q-303 0 -509 192.5t-206 525.5z" />
<glyph unicode="H" horiz-adv-x="1456" d="M160 27v1339q0 18 14 32.5t34.5 14.5t35 -14.5t14.5 -32.5v-623h940v623q0 18 14.5 32.5t35 14.5t34.5 -14.5t14 -32.5v-1339q0 -18 -14 -32.5t-34.5 -14.5t-35 14t-14.5 33v628h-940v-628q0 -18 -14.5 -32.5t-35 -14.5t-34.5 14.5t-14 32.5z" />
<glyph unicode="I" horiz-adv-x="417" d="M160 27v1339q0 18 14 32.5t34.5 14.5t35 -14.5t14.5 -32.5v-1339q0 -18 -14.5 -32.5t-35 -14.5t-34.5 14.5t-14 32.5z" />
<glyph unicode="J" horiz-adv-x="1030" d="M23 143q0 18 13 31.5t32 13.5q20 0 36 -16q123 -106 265 -106q193 0 305 120q104 111 104 320v860q0 18 14.5 32.5t35 14.5t35 -14.5t14.5 -32.5v-864q0 -254 -140 -387q-141 -135 -366 -135q-182 0 -326 120q-23 18 -22 43z" />
<glyph unicode="K" horiz-adv-x="1187" d="M160 27v1339q0 18 14 32.5t34.5 14.5t35 -14.5t14.5 -32.5v-698l735 727q18 18 41 18q18 0 31.5 -13.5t13.5 -33.5q0 -19 -16 -37l-565 -549l624 -723q10 -12 10.5 -30.5t-13 -32.5t-32.5 -14q-29 0 -55 30l-602 703l-172 -166v-520q0 -18 -14.5 -32.5t-35 -14.5 t-34.5 14t-14 33z" />
<glyph unicode="L" horiz-adv-x="1083" d="M160 47v1319q0 18 14 32.5t34.5 14.5t35 -14.5t14.5 -32.5v-1280h746q16 0 28 -12.5t12 -30.5t-12 -30.5t-28 -12.5h-795q-20 0 -34.5 14.5t-14.5 32.5z" />
<glyph unicode="M" horiz-adv-x="1695" d="M160 27v1327q0 25 17.5 42t41.5 17q35 0 53 -33l576 -931l575 931q23 33 56 33q25 0 41 -17.5t16 -41.5v-1327q0 -18 -13.5 -32.5t-34 -14.5t-34.5 14t-14 33v1198l-543 -873q-18 -31 -49 -30.5t-49 30.5l-543 873v-1198q0 -18 -13.5 -32.5t-34 -14.5t-34.5 14t-14 33z " />
<glyph unicode="N" horiz-adv-x="1511" d="M160 25v1335q0 23 16.5 38t38.5 15q27 0 51 -31l991 -1228v1214q0 18 13.5 31.5t34 13.5t34 -13.5t13.5 -31.5v-1335q0 -23 -16.5 -38t-39.5 -15q-29 0 -53 30l-987 1229v-1214q0 -18 -13.5 -31.5t-34 -13.5t-34.5 13t-14 32z" />
<glyph unicode="O" horiz-adv-x="1648" d="M104 694q0 297 211 508t508 211t509 -211t212 -508q0 -295 -212 -504.5t-509 -209.5q-299 0 -509 208.5t-210 505.5zM207 694q0 -256 180 -440t436 -184q258 0 438.5 184t180.5 440t-180.5 441.5t-438.5 185.5q-256 0 -436 -185.5t-180 -441.5z" />
<glyph unicode="P" horiz-adv-x="1259" d="M160 27v1319q0 20 14.5 34.5t34.5 14.5h498q190 0 315 -95q162 -123 162 -350q0 -113 -46 -207t-128 -151q-119 -86 -334 -86h-418v-479q0 -18 -14.5 -32.5t-35 -14.5t-34.5 14t-14 33zM258 592h401q180 0 279 65q145 98 145 293q0 190 -133 285q-104 74 -260 74h-432 v-717z" />
<glyph unicode="Q" horiz-adv-x="1650" d="M104 694q0 297 212 508t509 211t509 -211t212 -508q0 -274 -186 -478t-457 -232q8 -14 92 -41q352 -109 473 -140q10 -2 24.5 -6t23 -6t20.5 -5t18.5 -6t14.5 -6t12 -7.5t8 -8.5t6 -10t2 -12q0 -41 -57 -41q-27 0 -79 12t-138 39t-155.5 50.5t-197.5 66.5t-198 65 q-33 12 -33 41q0 10 2 15q-270 31 -453.5 233.5t-183.5 476.5zM207 694q0 -258 180 -441t438 -183t437.5 184t179.5 440t-179.5 441.5t-437.5 185.5t-438 -185.5t-180 -441.5z" />
<glyph unicode="R" horiz-adv-x="1304" d="M160 27v1319q0 20 14 34.5t35 14.5h496q219 0 333 -72q166 -104 166 -340q0 -219 -166 -330q-106 -72 -262 -78l418 -516q12 -18 12 -32q0 -18 -15 -32.5t-36 -14.5q-29 0 -45 22l-455 571h-397v-546q0 -18 -14.5 -32.5t-35 -14.5t-34.5 14t-14 33zM258 657h426 q186 0 281 54q139 82 139 272q0 195 -137 274q-88 54 -281 54h-428v-654z" />
<glyph unicode="S" horiz-adv-x="1116" d="M96 154q0 23 14.5 36t34.5 13q14 0 29.5 -10.5t49.5 -32t77 -41.5q117 -53 256 -53q178 0 274.5 82.5t96.5 224.5q0 156 -178 237q-63 29 -202.5 69t-219.5 75q-225 98 -226 299q0 172 123 266t355 94q178 0 315 -61q76 -33 76 -68q0 -45 -47 -45q-12 0 -29.5 7 t-45.5 21.5t-56 22.5q-106 37 -218 37q-370 0 -370 -271q0 -155 213 -235q53 -20 199.5 -61t224.5 -82q190 -102 190 -297q0 -190 -129 -295.5t-346 -105.5q-215 0 -412 110q-49 27 -49 64z" />
<glyph unicode="T" horiz-adv-x="1120" d="M0 1352q0 16 12.5 29.5t30.5 13.5h1034q18 0 30.5 -13.5t12.5 -29.5q0 -18 -12.5 -30.5t-30.5 -12.5h-467v-1282q0 -18 -14 -32.5t-34.5 -14.5t-35 14t-14.5 33v1282h-469q-18 0 -30.5 12t-12.5 31z" />
<glyph unicode="U" horiz-adv-x="1476" d="M158 551v815q0 18 14 32.5t34.5 14.5t35 -14.5t14.5 -32.5v-801q0 -229 121 -360q131 -137 360 -137q231 0 363 137q121 131 121 360v801q0 18 14 32.5t34.5 14.5t35 -14.5t14.5 -32.5v-815q0 -252 -137 -401q-158 -170 -445 -170q-285 0 -442 170q-137 150 -137 401z " />
<glyph unicode="V" horiz-adv-x="1236" d="M12 1364q0 20 14.5 34.5t34.5 14.5q35 0 50 -37l505 -1261l510 1261q14 37 50 37q20 0 34.5 -13.5t14.5 -33.5q0 -8 -8 -29l-533 -1306q-23 -51 -68 -51q-47 0 -65 51l-533 1306q-6 25 -6 27z" />
<glyph unicode="W" horiz-adv-x="2088" d="M12 1366q0 20 14.5 33.5t34.5 13.5q39 0 50 -39l438 -1259l442 1257q14 41 53 41q41 0 52 -41l444 -1257l438 1261q10 37 50 37q20 0 34.5 -13.5t14.5 -33.5q0 -4 -9 -29l-460 -1306q-16 -51 -67.5 -51t-67.5 51l-431 1200l-428 -1200q-14 -51 -65 -51t-68 51l-463 1306 q-6 18 -6 29z" />
<glyph unicode="X" horiz-adv-x="1243" d="M8 31q0 16 19 39l534 626l-532 627q-16 20 -17 39q0 20 16.5 35.5t37.5 15.5q26 0 49 -31l508 -608l507 608q23 31 50 31q20 0 37.5 -15.5t17.5 -35.5q0 -16 -18 -39l-531 -627l535 -626q16 -20 16 -39q0 -20 -16.5 -35.5t-36.5 -15.5q-27 0 -49 28l-510 613l-512 -613 q-23 -29 -50 -28q-20 0 -37.5 15t-17.5 36z" />
<glyph unicode="Y" horiz-adv-x="1157" d="M4 1368q0 18 13.5 31.5t33.5 13.5q27 0 47 -29l480 -659l483 659q23 29 45 29q20 0 33.5 -13.5t13.5 -33.5q0 -19 -12 -37l-514 -700v-602q0 -18 -14.5 -32.5t-35 -14.5t-35 14t-14.5 33v602l-512 700q-12 14 -12 39z" />
<glyph unicode="Z" horiz-adv-x="1105" d="M8 1352q0 16 13.5 29.5t29.5 13.5h957q20 0 32.5 -13.5t12.5 -30t-11 -32.5l-870 -1233h877q16 0 28.5 -12.5t12.5 -30.5t-12.5 -30.5t-28.5 -12.5h-965q-18 0 -30.5 12.5t-12.5 30.5q0 14 12 35l871 1231h-873q-16 0 -29.5 12t-13.5 31z" />
<glyph unicode="[" horiz-adv-x="602" d="M156 -285v1755q0 18 13.5 33t31.5 15h305q16 0 28.5 -12.5t12.5 -28.5q0 -18 -12.5 -30.5t-28.5 -12.5h-260v-1682h260q16 0 28.5 -12t12.5 -31q0 -16 -12.5 -27.5t-28.5 -11.5h-305q-18 0 -31.5 13.5t-13.5 31.5z" />
<glyph unicode="\" horiz-adv-x="509" d="M45 1354q-10 43 31 57q45 10 57 -35l375 -1339q6 -16 -3 -32.5t-28 -22.5q-16 -4 -33.5 5t-21.5 27z" />
<glyph unicode="]" horiz-adv-x="600" d="M53 -291q0 18 12.5 30.5t28.5 12.5h260v1682h-260q-16 0 -28.5 12t-12.5 31q0 14 12.5 27.5t28.5 13.5h305q18 0 31.5 -14.5t13.5 -33.5v-1755q0 -18 -13 -31.5t-32 -13.5h-305q-16 0 -28.5 12.5t-12.5 26.5z" />
<glyph unicode="^" horiz-adv-x="995" d="M90 883q0 12 10 28l357 562q16 22 40.5 22t41.5 -22l356 -562q10 -16 10 -28q0 -16 -12 -28.5t-29 -12.5q-20 0 -37 22l-329 522l-330 -522q-16 -23 -37 -22q-16 0 -28.5 12t-12.5 29z" />
<glyph unicode="_" horiz-adv-x="1017" d="M-39 -229q0 16 11.5 26t27.5 10h1018q37 0 37 -36.5t-37 -36.5h-1018q-39 0 -39 37z" />
<glyph unicode="`" horiz-adv-x="802" d="M268 1536q0 16 11.5 26.5t27.5 10.5q25 0 39 -31l180 -317q9 -15 9 -27q0 -29 -31 -29q-23 0 -37 27l-186 307q-12 25 -13 33z" />
<glyph unicode="a" horiz-adv-x="962" d="M96 244q0 176 197 245q121 43 438 66v31q0 133 -57 202q-59 72 -193 72q-109 0 -205 -41q-23 -10 -44 -22.5t-32.5 -17.5t-21.5 -5q-35 0 -35 37q0 33 88 74q113 51 256 51q176 0 261 -96q74 -90 73 -254v-563q0 -18 -13 -30.5t-31.5 -12.5t-32 12t-13.5 31v26 q-135 -69 -289 -69h-4q-135 0 -238.5 66.5t-103.5 197.5zM180 250q0 -100 83 -149.5t198 -49.5q143 0 270 76v356q-272 -16 -369 -45q-182 -57 -182 -188z" />
<glyph unicode="b" horiz-adv-x="1062" d="M156 53v1315q0 18 13 31.5t31.5 13.5t32 -13.5t13.5 -31.5v-504q125 72 282 72q197 0 318 -129q117 -127 117 -348q0 -193 -103 -312q-142 -167 -425 -167h-3q-115 0 -229 14q-47 8 -47 59zM246 66q111 -12 192 -13q233 0 350 142q84 100 84 264q0 197 -104 301 q-98 100 -254 100q-147 0 -268 -74v-720z" />
<glyph unicode="c" horiz-adv-x="954" d="M98 459q0 182 109 307q139 168 377 168q127 0 233 -51q51 -27 51 -58q0 -14 -11 -26.5t-25.5 -12.5t-63.5 25q-78 39 -182 39q-188 0 -305 -133q-90 -106 -91 -260q0 -180 107 -287q111 -111 289 -111q119 0 188 35q49 25 63.5 25t24.5 -11.5t10 -25.5q0 -33 -59 -59 q-96 -43 -229 -43q-225 0 -357 135q-129 133 -129 344z" />
<glyph unicode="d" horiz-adv-x="1042" d="M98 457q0 178 90 299q125 180 365 180q121 0 244 -45v479q0 18 13 30.5t31.5 12.5t32 -12t13.5 -31v-1323q0 -47 -49 -47h-217q-272 0 -412 152q-111 117 -111 305zM190 459q0 -162 89 -256q112 -127 350 -127h168v737q-123 47 -240 47q-193 0 -297 -155 q-70 -100 -70 -246z" />
<glyph unicode="e" horiz-adv-x="1073" d="M98 471q0 197 119 328q121 137 334 137q195 0 315 -131q111 -121 111 -307q0 -57 -53 -58h-731q6 -154 86 -247q106 -135 301 -136q145 0 254 62q12 6 24 14t18.5 12.5t13.5 7.5t13 3q14 0 24.5 -12.5t10.5 -26.5q0 -27 -55 -60q-135 -77 -304 -77h-4q-229 0 -364 157 q-113 133 -113 334zM193 510h696q-2 154 -88 242q-92 106 -250 106q-178 0 -275 -119q-77 -90 -83 -229z" />
<glyph unicode="f" horiz-adv-x="667" d="M53 883q0 14 10.5 24.5t24.5 10.5h115v190q0 305 256 305q98 0 184 -43q68 -35 68 -70q0 -39 -37 -38q-6 0 -68.5 34.5t-132.5 34.5q-100 0 -140 -55t-40 -172v-186h299q14 0 24.5 -10.5t10.5 -24.5q0 -37 -35 -37h-299v-823q0 -18 -13.5 -30.5t-32 -12.5t-31.5 12 t-13 31v823h-115q-35 0 -35 37z" />
<glyph unicode="g" horiz-adv-x="1052" d="M98 461q0 213 115 346q109 129 289 129q168 0 305 -107v64q0 18 13.5 30.5t31.5 12.5t31.5 -12.5t13.5 -30.5v-926q0 -215 -104 -325q-100 -111 -304 -111q-158 0 -262 78q-77 49 -77 86q0 39 36 39q10 0 18.5 -4t14.5 -10.5t20.5 -19.5t30.5 -26q85 -69 213 -69h4 q166 0 244 90q76 90 76 260v137q-120 -110 -300 -110h-3q-178 0 -291 129q-115 137 -115 350zM190 461q0 -180 86 -291q86 -109 236 -109q178 0 295 117v567q-135 113 -295 113q-147 0 -236 -113q-86 -106 -86 -284z" />
<glyph unicode="h" horiz-adv-x="1110" d="M156 23v1347q0 18 13 30.5t31.5 12.5t32 -12t13.5 -31v-639q100 205 348 205q168 0 264 -80q111 -98 111 -317v-516q0 -18 -13.5 -30.5t-32 -12.5t-30.5 12.5t-12 30.5v493q0 190 -88 270q-74 68 -213 68q-186 0 -277 -162q-57 -109 -57 -231v-438q0 -18 -13.5 -30.5 t-32 -12.5t-31.5 12t-13 31z" />
<glyph unicode="i" horiz-adv-x="401" d="M141 1374q0 23 16.5 39.5t41.5 16.5q23 0 39 -16.5t16 -39.5q0 -25 -16 -41t-39 -16q-25 0 -41.5 16.5t-16.5 40.5zM156 23v870q0 18 13 30.5t31.5 12.5t32 -12.5t13.5 -30.5v-870q0 -18 -13.5 -30.5t-32 -12.5t-31.5 12t-13 31z" />
<glyph unicode="j" horiz-adv-x="401" d="M2 -428q0 16 14.5 24.5t41 26t48.5 47.5q50 68 50 271v952q0 18 13 30.5t31.5 12.5t32 -12.5t13.5 -30.5v-997q0 -193 -70 -287q-23 -33 -59.5 -55.5t-69.5 -22.5q-45 0 -45 41zM141 1374q0 23 16.5 39.5t41.5 16.5q23 0 39 -16.5t16 -39.5q0 -25 -16 -41t-39 -16 q-25 0 -41.5 16.5t-16.5 40.5z" />
<glyph unicode="k" horiz-adv-x="917" d="M156 23v1345q0 18 13 30.5t31.5 12.5t32 -12.5t13.5 -30.5v-940l530 494q14 14 31 14q18 0 29.5 -12.5t11.5 -29t-14 -30.5l-381 -350l411 -467q10 -10 10 -27q0 -18 -12 -29t-28 -11q-23 0 -41 22l-404 457l-143 -135v-301q0 -18 -13.5 -30.5t-32 -12.5t-31.5 12t-13 31 z" />
<glyph unicode="l" horiz-adv-x="401" d="M156 23v1345q0 18 13 31.5t31.5 13.5t32 -13.5t13.5 -31.5v-1345q0 -18 -13.5 -30.5t-32 -12.5t-31.5 12.5t-13 30.5z" />
<glyph unicode="m" horiz-adv-x="1652" d="M156 23v870q0 18 13 30.5t31.5 12.5t32 -12.5t13.5 -30.5v-117q86 160 293 160q141 0 223 -74q68 -57 90 -147q39 109 121 166q78 55 198 55q158 0 246 -88q94 -94 94 -281v-544q0 -18 -13 -30.5t-31.5 -12.5t-32 12t-13.5 31v522q0 162 -73 239q-68 70 -193 70 q-145 0 -215 -113q-61 -94 -61 -270v-448q0 -18 -13.5 -30.5t-32 -12.5t-32 12t-13.5 31v522q0 162 -73 239q-68 70 -193 70q-145 0 -215 -111q-61 -96 -61 -247v-473q0 -18 -13.5 -30.5t-32 -12.5t-31.5 12t-13 31z" />
<glyph unicode="n" horiz-adv-x="1110" d="M156 23v870q0 18 13 30.5t31.5 12.5t32 -12.5t13.5 -30.5v-162q100 205 348 205q168 0 264 -80q111 -98 111 -317v-516q0 -18 -13.5 -30.5t-32 -12.5t-30.5 12.5t-12 30.5v493q0 190 -88 270q-74 68 -213 68q-186 0 -277 -162q-57 -109 -57 -231v-438q0 -18 -13.5 -30.5 t-32 -12.5t-31.5 12t-13 31z" />
<glyph unicode="o" horiz-adv-x="1163" d="M98 459q0 199 131 334q137 143 353 143q213 0 350 -143q131 -135 131 -334q0 -201 -131 -336q-139 -143 -350 -143q-213 0 -353 143q-131 135 -131 336zM188 459q0 -166 101 -279q115 -125 293 -125q176 0 290 125q102 115 103 279q0 162 -103 276q-117 127 -290 127 q-176 0 -293 -127q-101 -112 -101 -276z" />
<glyph unicode="p" horiz-adv-x="1052" d="M156 -430v1288q0 52 53 62q98 16 211 16q240 0 383 -127q149 -128 149 -345q0 -212 -118 -345q-133 -139 -336 -139q-145 0 -252 53v-463q0 -18 -13.5 -30.5t-32 -12.5t-31.5 12t-13 31zM246 109q109 -55 246 -56q162 0 268 113q102 106 102 295q0 182 -114 291 q-120 110 -318 110h-4q-102 0 -180 -14v-739z" />
<glyph unicode="q" horiz-adv-x="1046" d="M98 459q0 190 107 313q137 164 422 164q104 0 215 -21q49 -10 49 -63v-1286q0 -16 -13.5 -29.5t-32 -13.5t-31.5 13t-13 30v584q-84 -170 -295 -170q-174 0 -283 112q-125 135 -125 367zM188 461q0 -203 97 -309q86 -98 231 -99q139 0 209 92q76 99 76 312v389 q-102 16 -180 16q-242 0 -355 -143q-78 -100 -78 -258z" />
<glyph unicode="r" horiz-adv-x="722" d="M156 23v870q0 18 13 30.5t31.5 12.5t32 -12.5t13.5 -30.5v-145h2q31 86 103.5 137t170.5 51q102 0 172 -45q49 -33 49 -64q0 -16 -12 -27.5t-29 -11.5q-10 0 -19 4.5t-28.5 16.5t-40.5 22q-45 23 -104 23q-115 0 -186 -98q-78 -106 -78 -264v-469q0 -18 -13.5 -30.5 t-32 -12.5t-31.5 12t-13 31z" />
<glyph unicode="s" horiz-adv-x="813" d="M93 137.5q11 12.5 26 12.5q8 0 16 -3.5t14.5 -7.5t18.5 -13l20 -15q88 -57 224 -58q109 0 168 46t59 132q0 66 -37 102t-115 70q-27 12 -111.5 42t-123.5 49q-152 68 -152 208q0 111 84 172.5t240 61.5q123 0 207 -33q76 -28 76 -59q0 -16 -11.5 -27.5t-25.5 -11.5 q-16 0 -76 24q-76 31 -164 31q-237 0 -237 -157v-1q0 -96 120 -149q35 -14 120 -45t116 -45q90 -41 137 -91t47 -134q0 -123 -86 -190.5t-233 -67.5q-158 0 -267 61q-65 33 -65 69q0 15 11 27.5z" />
<glyph unicode="t" horiz-adv-x="681" d="M41 883q0 14 10.5 24.5t24.5 10.5h100v161q0 18 13.5 30.5t32 12.5t31.5 -12t13 -31v-161h332q14 0 24.5 -10.5t10.5 -25t-10.5 -25.5t-24.5 -11h-332v-553q0 -119 46 -177.5t159 -58.5q66 0 127 35t70 35q14 0 24 -10.5t10 -24.5q0 -35 -81 -76q-76 -36 -159 -36h-5 q-281 0 -281 307v559h-100q-35 0 -35 37z" />
<glyph unicode="u" horiz-adv-x="1095" d="M141 383v510q0 18 13.5 30.5t32 12.5t31.5 -12.5t13 -30.5v-498q0 -127 43 -207q72 -125 273 -125q203 0 274 125q43 76 43 207v498q0 18 13.5 30.5t32 12.5t31.5 -12.5t13 -30.5v-510q0 -156 -61 -252q-91 -151 -343 -151h-3q-252 0 -344 151q-62 96 -62 252z" />
<glyph unicode="v" horiz-adv-x="868" d="M12 893q0 43 47 43q31 0 45 -41l328 -807h6l328 809q16 39 45 39q45 0 45 -41q0 -14 -12 -43l-344 -817q-23 -55 -68 -55t-67 55l-342 817q-10 27 -11 41z" />
<glyph unicode="w" horiz-adv-x="1406" d="M12 893q0 18 14.5 30.5t32.5 12.5q31 0 41 -43l281 -791l276 793q8 41 48 41q37 0 45 -41l274 -793l287 795q10 39 43 39q41 0 41 -41q0 -14 -6 -35l-304 -827q-16 -49 -61 -49q-47 0 -57 49l-265 749l-266 -749q-14 -49 -59 -49t-60 49l-299 827q-6 18 -6 33z" />
<glyph unicode="x" horiz-adv-x="888" d="M10 25q0 14 31 49l346 395l-334 379q-25 29 -24 45q0 18 13 30.5t34 12.5q25 0 47 -27l321 -377l322 375q20 29 47 29q20 0 32.5 -12.5t12.5 -30.5q0 -14 -22 -41l-336 -379l356 -403q23 -29 23 -45q0 -18 -13.5 -31.5t-34.5 -13.5q-29 0 -51 30l-336 396l-338 -400 q-27 -27 -49 -26q-20 0 -33.5 13t-13.5 32z" />
<glyph unicode="y" horiz-adv-x="899" d="M12 889q0 20 14.5 33.5t34.5 13.5q33 0 45 -31l359 -842l330 836q16 37 45 37q18 0 32.5 -13.5t14.5 -32t-13 -46.5l-358 -891q-82 -207 -183.5 -315.5t-248.5 -108.5q-20 0 -32.5 13.5t-12.5 31.5t12 31.5t33 13.5q115 0 190.5 82t145.5 250l-397 901q-10 25 -11 37z " />
<glyph unicode="z" horiz-adv-x="774" d="M10 881q0 14 12.5 25.5t26.5 11.5h662q37 0 37 -33q0 -20 -21 -45l-575 -762h583q14 0 26.5 -12.5t12.5 -26.5q0 -16 -11 -27.5t-28 -11.5h-667q-39 0 -39 35q0 16 18 39l580 768h-578q-39 0 -39 39z" />
<glyph unicode="{" horiz-adv-x="604" d="M37 651q0 43 31 43h8q199 0 198 324q0 55 -3 177t-3 146q0 145 62.5 209t185.5 64q39 0 39 -39q0 -33 -39 -37q-76 -4 -118 -44t-42 -163q0 -33 3 -150.5t3 -170.5q0 -301 -192 -359q193 -57 192 -358q0 -51 -3 -169t-3 -151q0 -123 42 -163.5t118 -42.5q39 -4 39 -39 q0 -39 -39 -39q-123 0 -185.5 63.5t-62.5 208.5q0 27 3 148.5t3 175.5q0 324 -198 323h-8q-31 0 -31 43z" />
<glyph unicode="|" horiz-adv-x="413" d="M164 -422v1790q0 18 12 31.5t32.5 13.5t34 -13.5t13.5 -31.5v-1790q0 -18 -13.5 -31.5t-34 -13.5t-33.5 13.5t-11 31.5z" />
<glyph unicode="}" horiz-adv-x="604" d="M49 -272q0 35 39 39q76 2 118 42.5t42 163.5q0 33 -3 151t-3 169q0 301 192 358q-193 57 -192 359q0 53 3 170.5t3 150.5q0 123 -42 163t-118 44q-39 4 -39 37q0 39 39 39q123 0 185.5 -63.5t62.5 -209.5q0 -25 -4 -146.5t-4 -176.5q0 -324 200 -324h9q30 0 30 -43 t-30 -43h-9q-201 0 -200 -323q0 -53 4 -175t4 -149q0 -145 -62.5 -208.5t-185.5 -63.5q-39 0 -39 39z" />
<glyph unicode="~" horiz-adv-x="1130" d="M111 555q0 53 73.5 110.5t175.5 57.5q82 0 156 -40t137.5 -80t118.5 -40q51 0 90 19.5t56.5 42t36 42t36.5 19.5q41 0 41 -43q0 -53 -72.5 -110.5t-177.5 -57.5q-84 0 -206.5 79t-204.5 79q-51 0 -90 -18.5t-56.5 -42t-36 -42t-36.5 -18.5q-41 0 -41 43z" />
<glyph unicode="&#xa0;" />
<glyph unicode="&#xa1;" horiz-adv-x="425" d="M150 -352q0 35 4 110.5t4 91.5l24 680q2 47 33 48q29 0 31 -48l24 -680q0 -16 4.5 -91.5t4.5 -110.5q0 -143 -64 -144q-65 1 -65 144zM156 876.5q0 26.5 16 43t43 16.5t43 -16.5t16 -43t-16 -43t-43 -16.5t-43 16.5t-16 43z" />
<glyph unicode="&#xa2;" d="M227 459q0 186 111 309q127 154 344 166v125q0 29 29 28q27 0 26 -28v-125q111 -2 209 -53q51 -27 51 -52q0 -14 -11 -25t-25 -11q-8 0 -14.5 3t-21 11t-28.5 14q-78 39 -184 39q-188 0 -307 -141q-88 -109 -89 -260q0 -178 109 -293q106 -111 289 -111q121 0 188 33 q14 6 27.5 13.5t19.5 10.5t15 3q14 0 25 -10.5t11 -26.5q0 -27 -59 -53q-82 -39 -205 -43v-123q0 -29 -26 -29q-29 0 -29 29v123q-199 10 -320 127q-135 131 -135 350z" />
<glyph unicode="&#xa3;" d="M156 43q0 16 12 29.5t29 13.5h77q129 104 129 276q0 98 -55 242h-106q-16 0 -28.5 12.5t-12.5 29t12 28.5t29 12h73q-66 170 -65 297q0 174 113.5 302t330.5 128q125 0 234 -31q90 -23 90 -59q0 -16 -12.5 -29.5t-28.5 -13.5q-10 0 -24.5 4t-39 12.5t-47.5 14.5 q-68 20 -166 20q-176 0 -265 -104.5t-89 -245.5q0 -121 70 -295h442q16 0 27.5 -12t11.5 -28.5t-11.5 -29t-27.5 -12.5h-412q51 -150 52 -242q0 -163 -119 -276h643q16 0 28.5 -13.5t12.5 -29.5q0 -18 -12.5 -30.5t-28.5 -12.5h-825q-16 0 -28.5 12.5t-12.5 30.5z" />
<glyph unicode="&#xa4;" horiz-adv-x="1402" d="M141 268l185 185q-127 150 -127 342q0 197 129 342l-187 186q-27 31 2 59q27 27 58 0l184 -186q150 129 344 129q193 0 342 -129l184 186q31 27 59.5 -1.5t0.5 -57.5l-187 -186q131 -143 132 -342q0 -195 -130 -344l185 -183q29 -29 0 -57q-31 -31 -60 -2l-184 184 q-145 -129 -342 -129q-195 0 -344 129l-184 -184q-29 -29 -58 -0.5t-2 59.5zM266 794.5q0 -192.5 135.5 -327.5t328 -135t326.5 135t134 327.5t-134 326.5t-326.5 134t-328 -134t-135.5 -326.5z" />
<glyph unicode="&#xa5;" d="M39 1366q0 18 13.5 32.5t33.5 14.5q25 0 47 -29l479 -659l484 659q18 29 45 29q20 0 33.5 -14.5t13.5 -32.5q0 -23 -12 -37l-474 -641h353q14 0 24.5 -10t10.5 -24.5t-10.5 -25t-24.5 -10.5h-393v-196h393q14 0 24.5 -10.5t10.5 -24.5t-10.5 -24.5t-24.5 -10.5h-393v-325 q0 -20 -14.5 -33.5t-35 -13.5t-35 13t-14.5 34v325h-393q-14 0 -24.5 10.5t-10.5 24.5q0 35 35 35h393v196h-393q-35 0 -35 35q0 14 10.5 24.5t24.5 10.5h352l-471 641q-12 25 -12 37z" />
<glyph unicode="&#xa6;" horiz-adv-x="413" d="M160 328q0 18 13 31.5t33.5 13.5t34 -13.5t13.5 -31.5v-750q0 -18 -13.5 -31.5t-34 -13.5t-33.5 13.5t-13 31.5v750zM160 618v750q0 18 13 31.5t33.5 13.5t34 -13.5t13.5 -31.5v-750q0 -18 -13.5 -31.5t-34 -13.5t-33.5 13.5t-13 31.5z" />
<glyph unicode="&#xa7;" horiz-adv-x="909" d="M104 559q0 170 156 293q-111 100 -110 244q0 156 95 237.5t236 81.5q154 0 258 -63q57 -33 58 -64q0 -16 -11.5 -28.5t-27.5 -12.5q-12 0 -24.5 7.5t-31 20.5t-32.5 21q-74 45 -187 45q-100 0 -170.5 -58t-70.5 -179q0 -78 42 -141.5t104.5 -102.5t136 -87t136 -93 t104.5 -122t42 -173q0 -170 -158 -293q111 -100 111 -242q0 -156 -94.5 -237.5t-235.5 -81.5q-154 0 -258 63q-59 35 -59 64q0 16 12 28.5t29 12.5q12 0 24 -7t30.5 -20.5t33.5 -21.5q74 -45 184 -45q100 0 171 58t71 179q0 92 -58.5 163t-140.5 119t-165 100t-141.5 137 t-58.5 198zM197 569q0 -84 42 -151.5t89 -101t133 -87t125 -82.5q129 100 129 230q0 82 -42 149.5t-89 101.5t-136.5 88t-125.5 81q-125 -96 -125 -228z" />
<glyph unicode="&#xa8;" horiz-adv-x="802" d="M174 1374q0 23 16.5 39.5t40.5 16.5q23 0 40.5 -16.5t17.5 -39.5q0 -25 -17.5 -41t-40.5 -16q-25 0 -41 16.5t-16 40.5zM514 1374q0 23 16.5 39.5t40.5 16.5q23 0 39.5 -16.5t16.5 -39.5q0 -25 -16.5 -41t-39.5 -16q-25 0 -41 16.5t-16 40.5z" />
<glyph unicode="&#xa9;" horiz-adv-x="1716" d="M104 733.5q0 313.5 220.5 534.5t533.5 221t534.5 -221t221.5 -534.5t-220 -532.5t-534 -219q-315 0 -535.5 219t-220.5 532.5zM162 733q0 -287 203.5 -490.5t492.5 -203.5t492.5 203.5t203.5 490.5q0 289 -202.5 494t-491.5 205q-291 0 -494.5 -205t-203.5 -494zM498 727 q0 162 112.5 269.5t268.5 107.5q94 0 174 -33q55 -27 55 -47q0 -31 -31 -31q-6 0 -14 4t-22.5 12.5t-26.5 12.5q-53 25 -135 25q-131 0 -225.5 -91.5t-94.5 -228.5q0 -145 92 -232t230 -87q80 0 137 20q14 4 34.5 12.5t28.5 8.5q29 0 29 -31q0 -23 -49 -39q-82 -29 -180 -29 q-164 0 -273.5 103.5t-109.5 273.5z" />
<glyph unicode="&#xaa;" horiz-adv-x="567" d="M72 1001q0 101 102 146q68 31 260 43v12q0 102 -49 141q-33 27 -92 27q-66 0 -117 -26.5t-53 -26.5q-25 0 -25 22q0 25 63.5 50.5t137.5 25.5t125 -35q68 -51 68 -182v-336q0 -12 -9.5 -20t-19.5 -8q-20 0 -25 16l-2 33q-70 -45 -166 -45q-84 0 -139 41q-59 45 -59 122z M129 1001q0 -59 47 -90q41 -31 107 -30q47 0 84 12q35 10 67 29v227q-127 -4 -198 -27q-106 -33 -107 -121zM143 575q0 25 23 25h231q23 0 23 -25q0 -23 -23 -22h-231q-23 0 -23 22z" />
<glyph unicode="&#xab;" horiz-adv-x="1101" d="M78 460.5q0 12.5 14 31.5l422 434q12 14 30.5 14t30 -11t11.5 -28q0 -18 -13 -31l-395 -409l395 -410q12 -12 13 -31q0 -38 -41 -38q-18 0 -31 14l-422 434q-14 18 -14 30.5zM516 460.5q0 16.5 14 31.5l420 434q14 14 33 14q16 0 28.5 -11t12.5 -28q0 -18 -14 -31 l-396 -409l396 -410q14 -12 14 -31q0 -38 -43 -38q-16 0 -31 14l-420 434q-14 14 -14 30.5z" />
<glyph unicode="&#xac;" horiz-adv-x="1114" d="M72 718.5q0 18.5 12.5 31t30.5 12.5h882q18 0 31.5 -12.5t13.5 -30.5v-283q0 -18 -13 -30.5t-30 -12.5q-18 0 -30.5 12.5t-12.5 30.5v238h-841q-18 0 -30.5 13t-12.5 31.5z" />
<glyph unicode="&#xad;" horiz-adv-x="1001" d="M174 602q0 18 12.5 30.5t28.5 12.5h571q16 0 28.5 -12t12.5 -31q0 -16 -12.5 -28.5t-28.5 -12.5h-571q-16 0 -28.5 12.5t-12.5 28.5z" />
<glyph unicode="&#xae;" horiz-adv-x="960" d="M104 1097.5q0 155.5 110 266.5t265 111q158 0 268.5 -111t110.5 -266.5t-110.5 -265t-266 -109.5t-266.5 109.5t-111 265zM141 1098q0 -139 98.5 -238.5t240 -99.5t240.5 99t99 239q0 143 -99 241.5t-241 98.5q-139 0 -238.5 -98.5t-99.5 -241.5zM328 932v336q0 18 20 18 h141q141 0 142 -108q0 -92 -105 -107l97 -119q10 -12 10 -22q0 -18 -17 -19q-12 0 -24 19l-111 139h-114v-137q0 -20 -19 -21q-20 1 -20 21zM367 1106h116q109 0 109 72q0 74 -105 73h-120v-145z" />
<glyph unicode="&#xaf;" horiz-adv-x="802" d="M141 1358q0 14 10.5 25.5t24.5 11.5h449q14 0 25.5 -11.5t11.5 -25.5q0 -37 -37 -37h-449q-35 0 -35 37z" />
<glyph unicode="&#xb0;" horiz-adv-x="757" d="M102 1214.5q0 114.5 81 195.5t196 81t195.5 -81t80.5 -195.5t-80.5 -195.5t-195.5 -81t-196 81t-81 195.5zM152 1214q0 -94 65.5 -159.5t161.5 -65.5t161.5 65.5t65.5 159.5q0 96 -65.5 162t-161.5 66t-161.5 -65.5t-65.5 -162.5z" />
<glyph unicode="&#xb1;" horiz-adv-x="1130" d="M72 43q0 16 12.5 29.5t28.5 13.5h905q16 0 28.5 -13.5t12.5 -29.5q0 -18 -12.5 -30.5t-28.5 -12.5h-905q-16 0 -28.5 12.5t-12.5 30.5zM72 774q0 16 12 29.5t29 13.5h409v408q0 18 12.5 30.5t30.5 12.5q16 0 29.5 -12.5t13.5 -30.5v-408h410q16 0 28.5 -13t12.5 -30 q0 -18 -12.5 -30.5t-28.5 -12.5h-410v-409q0 -16 -13 -28.5t-30 -12.5q-18 0 -30.5 12t-12.5 29v409h-409q-16 0 -28.5 12.5t-12.5 30.5z" />
<glyph unicode="&#xb2;" horiz-adv-x="854" d="M197 711q0 125 69 194q39 41 128 90t120 74q70 55 70 133q0 72 -50.5 116t-125.5 44q-49 0 -99 -25q-12 -6 -24.5 -13t-19.5 -10l-14 -6t-13 -3q-27 0 -27 26q0 20 47 45q72 39 152 39q98 0 164.5 -58.5t66.5 -154.5q0 -94 -72 -160q-39 -35 -127 -83t-125 -82 q-57 -55 -57 -140h369q29 0 28 -26q0 -29 -28 -29h-404q-29 0 -28 29z" />
<glyph unicode="&#xb3;" horiz-adv-x="854" d="M211 735q0 27 29 27l59 -23q49 -16 100 -16q88 0 138.5 44t50.5 116q0 104 -105 139q-18 6 -53 8t-41 2q-18 4 -18 24.5t18 24.5q88 10 100 17q76 29 76 121q0 61 -43 102t-114 41q-49 0 -97 -21q-10 -4 -22.5 -10t-19.5 -9t-13 -3q-29 0 -29 29q0 16 37 34q76 33 146 33 q94 0 152.5 -54t58.5 -138q0 -117 -111 -162q137 -47 137 -180q0 -94 -66.5 -151.5t-179.5 -57.5q-66 0 -129 18q-61 18 -61 45z" />
<glyph unicode="&#xb4;" horiz-adv-x="802" d="M268 1198q0 6 8 27l181 317q14 31 39 31q16 0 27.5 -10.5t11.5 -26.5q0 -12 -13 -33l-186 -307q-14 -27 -35 -27q-33 0 -33 29z" />
<glyph unicode="&#xb5;" horiz-adv-x="1095" d="M141 -307v1200q0 18 13.5 30.5t32 12.5t31.5 -12.5t13 -30.5v-506q0 -127 43 -207q72 -125 273 -125q205 0 274 125q43 76 43 207v506q0 18 13.5 30.5t32 12.5t31.5 -12.5t13 -30.5v-510q0 -156 -61 -252q-92 -152 -346 -151q-215 0 -316 112v-399q0 -18 -13 -30.5 t-31.5 -12.5t-32 12.5t-13.5 30.5z" />
<glyph unicode="&#xb6;" horiz-adv-x="1155" d="M82 1055q0 199 123 306t348 107h526q14 0 25.5 -11t11.5 -27.5t-10 -27.5t-27 -11h-180v-1758q0 -16 -12.5 -28.5t-30.5 -12.5t-30.5 12.5t-12.5 28.5v1758h-244v-1758q0 -16 -13 -28.5t-30 -12.5q-18 0 -30.5 12.5t-12.5 28.5l2 1006q-188 10 -295.5 121.5t-107.5 294.5 z" />
<glyph unicode="&#xb7;" horiz-adv-x="325" d="M102 706.5q0 26.5 18.5 44t45.5 17.5q25 0 42 -17.5t17 -44t-17.5 -45t-41.5 -18.5q-27 0 -45.5 18.5t-18.5 45z" />
<glyph unicode="&#xb8;" horiz-adv-x="768" d="M229 -352q0 27 27 26q6 0 28.5 -3t43.5 -3q63 0 111 26.5t48 84.5q0 49 -39.5 72.5t-95.5 23.5q-43 0 -37 41l7 94h51v-90q78 -2 130 -37.5t52 -103.5q0 -86 -71.5 -126t-161.5 -40q-37 0 -68 6q-25 6 -25 29z" />
<glyph unicode="&#xb9;" horiz-adv-x="854" d="M238 1315q0 16 26 28l158 66q18 6 24 6q31 0 31 -31v-647h131q27 0 27 -26q0 -29 -27 -29h-340q-27 0 -26 29q0 27 26 26h146v606l-123 -47q-18 -8 -29 -8q-25 0 -24 27z" />
<glyph unicode="&#xba;" horiz-adv-x="798" d="M111 1128q0 115 73 195q82 92 215 92t219 -92q72 -82 72 -195q0 -115 -72 -196q-86 -92 -219 -92t-215 92q-73 79 -73 196zM170 1128q0 -84 59 -161q66 -76 170 -76q106 0 172 76q57 70 57.5 162t-57.5 159q-66 76 -172 76q-104 0 -170 -76q-59 -74 -59 -160zM260 575 q0 10 7.5 17.5t17.5 7.5h231q23 0 23 -25q0 -23 -23 -22h-231q-25 0 -25 22z" />
<glyph unicode="&#xbb;" horiz-adv-x="1101" d="M78 20q0 16 14 31l395 410l-395 409q-14 14 -14 31t12 28t30.5 11t31.5 -14l421 -434q12 -16 12.5 -31t-12.5 -31l-421 -434q-13 -14 -31 -14q-43 0 -43 38zM516 20q0 18 12 31l398 410l-398 409q-12 12 -12 31q0 16 11.5 27.5t29.5 11.5t31 -14l422 -434 q14 -18 14 -30.5t-14 -31.5l-422 -434q-13 -14 -31 -14q-41 0 -41 38z" />
<glyph unicode="&#xbc;" horiz-adv-x="854" d="M80 485q0 27 29 27h634q27 0 27 -27q0 -29 -27 -28h-634q-29 0 -29 28zM125 -225q0 12 6 22l340 486q14 20 33 20q33 0 33 -33v-467h96q27 0 26 -28q0 -27 -26 -27h-96v-158q0 -31 -31 -30.5t-31 30.5v158h-323q-27 0 -27 27zM203 -197h272v390zM225 1315q0 16 27 28 l158 66q12 6 24 6q29 0 29 -31v-647h131q27 0 27 -26q0 -29 -27 -29h-338q-27 0 -27 29q0 27 27 26h145v606l-122 -47q-18 -8 -29 -8q-25 0 -25 27z" />
<glyph unicode="&#xbd;" horiz-adv-x="854" d="M80 485q0 27 29 27h634q27 0 27 -27q0 -29 -27 -28h-634q-29 0 -29 28zM193 -401q0 125 71 194q41 39 127 88t119 76q72 55 72 133q0 72 -51.5 116t-124.5 44q-47 0 -101 -25q-10 -6 -22.5 -13t-19.5 -10l-14 -6t-13 -3q-29 0 -29 26q0 18 47 45q72 39 152 39 q98 0 165.5 -58.5t67.5 -154.5q0 -92 -74 -160q-37 -35 -125 -83t-125 -83q-59 -53 -59 -139h371q27 0 26 -26q0 -29 -26 -29h-406q-29 0 -28 29zM225 1315q0 16 27 28l158 66q12 6 24 6q29 0 29 -31v-647h131q27 0 27 -26q0 -29 -27 -29h-338q-27 0 -27 29q0 27 27 26h145 v606l-122 -47q-18 -8 -29 -8q-25 0 -25 27z" />
<glyph unicode="&#xbe;" horiz-adv-x="854" d="M80 485q0 27 29 27h634q27 0 27 -27q0 -29 -27 -28h-634q-29 0 -29 28zM125 -225q0 12 6 22l340 486q14 20 33 20q33 0 33 -33v-467h96q27 0 26 -28q0 -27 -26 -27h-96v-158q0 -31 -31 -30.5t-31 30.5v158h-323q-27 0 -27 27zM186.5 735q-0.5 27 28.5 27l59 -23 q49 -16 101 -16q88 0 138 44t50 116q0 104 -104 139q-18 6 -53 8t-41 2q-18 4 -18.5 24.5t18.5 24.5q84 10 100 17q76 31 76 121q0 61 -43 102t-115 41q-49 0 -96 -21q-10 -4 -22.5 -10t-19.5 -9t-14 -3q-29 0 -28 29q0 16 37 34q76 33 145 33q94 0 152.5 -54t58.5 -138 q0 -117 -111 -162q138 -47 138 -180q0 -94 -67 -151.5t-179 -57.5q-66 0 -129 18q-61 18 -61.5 45zM203 -197h272v390z" />
<glyph unicode="&#xbf;" horiz-adv-x="1024" d="M94 -94q0 115 52.5 185.5t158.5 146.5q57 43 89 71.5t66 80.5t48 114q2 6 4 18.5t3 17.5t3 14t4 14t5 10.5t7.5 8.5t10.5 5t12 2q18 0 31.5 -13.5t13.5 -33.5q0 -72 -37 -154q-18 -41 -51 -79t-56.5 -59.5t-76.5 -64.5t-76 -61q-119 -96 -119 -223q0 -143 94.5 -229.5 t239.5 -86.5q156 0 293 95q23 16 45.5 35.5t33.5 25.5t23 6q18 0 29.5 -12.5t11.5 -28.5q0 -39 -94 -100q-158 -104 -346 -105q-180 0 -301 111t-121 289zM502 877q0 27 16.5 44t40.5 17q27 0 44.5 -17.5t17.5 -43.5q0 -25 -17.5 -41.5t-44.5 -16.5q-25 0 -41 16.5t-16 41.5 z" />
<glyph unicode="&#xc0;" horiz-adv-x="1263" d="M16 25q0 8 9 32l542 1307q18 49 65.5 49t65.5 -49l543 -1307q6 -14 6 -30q0 -47 -47 -47q-35 -1 -51 40l-148 355h-739l-149 -355q-12 -41 -52 -40q-45 0 -45 45zM289 455h686l-344 825zM498 1956q0 16 11 26.5t28 10.5q25 0 38 -31l181 -317q8 -15 8 -27q0 -29 -31 -29 q-23 0 -37 27l-186 307q-12 25 -12 33z" />
<glyph unicode="&#xc1;" horiz-adv-x="1263" d="M16 25q0 8 9 32l542 1307q18 49 65.5 49t65.5 -49l543 -1307q6 -14 6 -30q0 -47 -47 -47q-35 -1 -51 40l-148 355h-739l-149 -355q-12 -41 -52 -40q-45 0 -45 45zM289 455h686l-344 825zM498 1618q0 6 8 27l180 317q14 31 39 31q16 0 27.5 -10.5t11.5 -26.5 q0 -12 -12 -33l-187 -307q-14 -27 -35 -27q-32 0 -32 29z" />
<glyph unicode="&#xc2;" horiz-adv-x="1263" d="M16 25q0 8 9 32l542 1307q18 49 65.5 49t65.5 -49l543 -1307q6 -14 6 -30q0 -47 -47 -47q-35 -1 -51 40l-148 355h-739l-149 -355q-12 -41 -52 -40q-45 0 -45 45zM289 455h686l-344 825zM309 1653q0 16 15 30l270 287q23 19 35 19q14 0 37 -19l268 -287q16 -16 16 -30.5 t-10 -24.5t-24.5 -10t-26.5 12l-260 275l-260 -275q-12 -12 -27 -12q-33 0 -33 35z" />
<glyph unicode="&#xc3;" horiz-adv-x="1263" d="M16 25q0 8 9 32l542 1307q18 49 65.5 49t65.5 -49l543 -1307q6 -14 6 -30q0 -47 -47 -47q-35 -1 -51 40l-148 355h-739l-149 -355q-12 -41 -52 -40q-45 0 -45 45zM289 455h686l-344 825zM311 1817q0 29 41 69q53 49 133 49q66 0 152 -51q86 -55 131 -55q47 0 86 31 q10 8 22.5 22t21.5 22.5t17 8.5q35 0 35 -35q0 -31 -43 -70q-49 -49 -133 -49q-53 0 -147 56q-82 53 -133 53q-49 0 -88 -35q-10 -8 -21.5 -22.5t-21 -21.5t-19.5 -7q-33 0 -33 35z" />
<glyph unicode="&#xc4;" horiz-adv-x="1263" d="M16 25q0 8 9 32l542 1307q18 49 65.5 49t65.5 -49l543 -1307q6 -14 6 -30q0 -47 -47 -47q-35 -1 -51 40l-148 355h-739l-149 -355q-12 -41 -52 -40q-45 0 -45 45zM289 455h686l-344 825zM403 1790q0 23 16.5 39t41.5 16q23 0 40 -16.5t17 -38.5q0 -25 -17 -41t-40 -16 q-25 0 -41.5 16t-16.5 41zM743 1790q0 23 16.5 39t41.5 16q23 0 39 -16.5t16 -38.5q0 -25 -16 -41t-39 -16q-25 0 -41.5 16t-16.5 41z" />
<glyph unicode="&#xc5;" horiz-adv-x="1263" d="M16 25q0 8 9 32l542 1307q18 49 65.5 49t65.5 -49l543 -1307q6 -14 6 -30q0 -47 -47 -47q-35 -1 -51 40l-148 355h-739l-149 -355q-12 -41 -52 -40q-45 0 -45 45zM289 455h686l-344 825zM399 1769.5q0 96.5 68 164t164 67.5t162.5 -67.5t66.5 -164t-66.5 -164 t-162.5 -67.5t-164 67.5t-68 164zM451 1769.5q0 -75.5 53 -128t127 -52.5t126 52.5t52 128t-52 129t-126 53.5t-127 -53.5t-53 -129z" />
<glyph unicode="&#xc6;" horiz-adv-x="1994" d="M16 25q0 20 19 45l977 1273q41 51 90 52h784q18 0 30.5 -13.5t12.5 -29.5q0 -18 -12 -30.5t-31 -12.5h-735v-568h631q16 0 28.5 -13t12.5 -30q0 -18 -12.5 -31.5t-28.5 -13.5h-631v-567h735q18 0 30.5 -12.5t12.5 -30.5t-12 -30.5t-31 -12.5h-784q-20 0 -34.5 14.5 t-14.5 32.5v328h-664l-276 -363q-27 -33 -52 -32q-45 0 -45 45zM451 455h602v786z" />
<glyph unicode="&#xc7;" horiz-adv-x="1355" d="M104 698q0 291 213 503t504 212q201 0 357 -78q88 -41 88 -82q0 -18 -13.5 -31.5t-31.5 -13.5q-12 0 -32 12.5t-54.5 32t-73.5 33.5q-109 39 -240 39q-250 0 -433 -186.5t-183 -440.5q0 -276 181 -453t437 -177q127 0 240 38q41 14 76 35t54 32t32 11q18 0 31.5 -13 t13.5 -32q0 -41 -88 -82q-145 -72 -338 -77v-60q78 -2 130 -37.5t52 -103.5q0 -86 -71.5 -126t-161.5 -40q-37 0 -68 6q-25 6 -25 29q0 27 27 26q6 0 28.5 -3t43.5 -3q63 0 111 26.5t48 84.5q0 49 -39.5 72.5t-95.5 23.5q-43 0 -37 41l5 66q-289 10 -488 208.5t-199 507.5z " />
<glyph unicode="&#xc8;" horiz-adv-x="1206" d="M160 47v1301q0 18 14 32.5t35 14.5h891q16 0 28.5 -13.5t12.5 -29.5q0 -18 -12.5 -30.5t-28.5 -12.5h-842v-568h735q18 0 30.5 -13t12.5 -30q0 -18 -12 -31.5t-31 -13.5h-735v-567h842q16 0 28.5 -12.5t12.5 -30.5t-12.5 -30.5t-28.5 -12.5h-891q-20 0 -34.5 14.5 t-14.5 32.5zM469 1952q0 16 11.5 26.5t27.5 10.5q23 0 39 -31l180 -318q8 -14 8 -26q0 -29 -30 -29q-23 0 -37 27l-187 307q-12 20 -12 33z" />
<glyph unicode="&#xc9;" horiz-adv-x="1206" d="M160 47v1301q0 18 14 32.5t35 14.5h891q16 0 28.5 -13.5t12.5 -29.5q0 -18 -12.5 -30.5t-28.5 -12.5h-842v-568h735q18 0 30.5 -13t12.5 -30q0 -18 -12 -31.5t-31 -13.5h-735v-567h842q16 0 28.5 -12.5t12.5 -30.5t-12.5 -30.5t-28.5 -12.5h-891q-20 0 -34.5 14.5 t-14.5 32.5zM508 1614q0 6 8 26l180 318q14 31 39 31q16 0 27.5 -10.5t11.5 -26.5q0 -12 -12 -33l-187 -307q-14 -27 -34 -27q-33 0 -33 29z" />
<glyph unicode="&#xca;" horiz-adv-x="1206" d="M160 47v1301q0 18 14 32.5t35 14.5h891q16 0 28.5 -13.5t12.5 -29.5q0 -18 -12.5 -30.5t-28.5 -12.5h-842v-568h735q18 0 30.5 -13t12.5 -30q0 -18 -12 -31.5t-31 -13.5h-735v-567h842q16 0 28.5 -12.5t12.5 -30.5t-12.5 -30.5t-28.5 -12.5h-891q-20 0 -34.5 14.5 t-14.5 32.5zM301 1651q0 16 14 30l271 287q15 19 35 19q23 0 36 -19l269 -287q16 -16 16 -30.5t-10 -24.5t-24.5 -10t-26.5 12l-260 275l-261 -275q-12 -12 -26 -12q-33 0 -33 35z" />
<glyph unicode="&#xcb;" horiz-adv-x="1206" d="M160 47v1301q0 18 14 32.5t35 14.5h891q16 0 28.5 -13.5t12.5 -29.5q0 -18 -12.5 -30.5t-28.5 -12.5h-842v-568h735q18 0 30.5 -13t12.5 -30q0 -18 -12 -31.5t-31 -13.5h-735v-567h842q16 0 28.5 -12.5t12.5 -30.5t-12.5 -30.5t-28.5 -12.5h-891q-20 0 -34.5 14.5 t-14.5 32.5zM403 1790q0 23 16.5 39t41.5 16q23 0 40 -16.5t17 -38.5q0 -25 -17 -41t-40 -16q-25 0 -41.5 16t-16.5 41zM743 1790q0 23 16.5 39t41.5 16q23 0 39 -16.5t16 -38.5q0 -25 -16 -41t-39 -16q-25 0 -41.5 16t-16.5 41z" />
<glyph unicode="&#xcc;" horiz-adv-x="419" d="M82 1952q0 16 11 26.5t28 10.5q23 0 39 -31l180 -318q8 -14 8 -26q0 -29 -31 -29q-23 0 -36 27l-187 307q-12 20 -12 33zM160 27v1339q0 18 14 32.5t34.5 14.5t35 -14.5t14.5 -32.5v-1339q0 -18 -14.5 -32.5t-35 -14.5t-34.5 14.5t-14 32.5z" />
<glyph unicode="&#xcd;" horiz-adv-x="419" d="M82 1614q0 6 8 26l180 318q14 31 39 31q16 0 27.5 -10.5t11.5 -26.5q0 -12 -12 -33l-186 -307q-14 -27 -35 -27q-33 0 -33 29zM160 27v1339q0 18 14 32.5t34.5 14.5t35 -14.5t14.5 -32.5v-1339q0 -18 -14.5 -32.5t-35 -14.5t-34.5 14.5t-14 32.5z" />
<glyph unicode="&#xce;" horiz-adv-x="419" d="M-104 1651q0 16 14 30l270 287q15 19 35 19q23 0 37 -19l268 -287q16 -16 16.5 -30.5t-10 -24.5t-25 -10t-26.5 12l-260 275l-260 -275q-12 -12 -27 -12q-33 0 -32 35zM160 27v1339q0 18 14 32.5t34.5 14.5t35 -14.5t14.5 -32.5v-1339q0 -18 -14.5 -32.5t-35 -14.5 t-34.5 14.5t-14 32.5z" />
<glyph unicode="&#xcf;" horiz-adv-x="419" d="M-12 1790q0 23 16 39t41 16q23 0 40 -16.5t17 -38.5q0 -25 -17 -41t-40 -16q-25 0 -41 16t-16 41zM160 27v1339q0 18 14 32.5t34.5 14.5t35 -14.5t14.5 -32.5v-1339q0 -18 -14.5 -32.5t-35 -14.5t-34.5 14.5t-14 32.5zM328 1790q0 23 16 39t41 16q23 0 39 -16.5t16 -38.5 q0 -25 -16 -41t-39 -16q-25 0 -41 16t-16 41z" />
<glyph unicode="&#xd0;" horiz-adv-x="1513" d="M-45 696.5q0 16.5 11 28.5t28 12h172v611q0 18 14.5 32.5t34.5 14.5h451q387 0 583 -224q160 -180 160 -475q0 -399 -291 -573q-178 -123 -483 -123h-420q-20 0 -34.5 14.5t-14.5 32.5v608h-172q-16 0 -27.5 12.5t-11.5 29zM264 84h357q248 0 411 90q276 154 277 522 q0 256 -142 418q-170 197 -520 197h-383v-574h348q16 0 28.5 -12t12.5 -28.5t-12.5 -29t-28.5 -12.5h-348v-571z" />
<glyph unicode="&#xd1;" horiz-adv-x="1511" d="M160 25v1335q0 23 16.5 38t38.5 15q27 0 51 -31l991 -1228v1214q0 18 13.5 31.5t34 13.5t34 -13.5t13.5 -31.5v-1335q0 -23 -16.5 -38t-39.5 -15q-29 0 -53 30l-987 1229v-1214q0 -18 -13.5 -31.5t-34 -13.5t-34.5 13t-14 32zM440 1817q0 29 41 69q53 49 137 49 q66 0 152 -51q86 -55 131 -55q41 0 69.5 21.5t45 42t28.5 20.5q35 0 35 -35q0 -33 -43 -72q-51 -47 -137 -47q-53 0 -147 56q-82 53 -134 53q-57 0 -94 -43t-51 -43q-33 0 -33 35z" />
<glyph unicode="&#xd2;" horiz-adv-x="1648" d="M104 694q0 297 211 508t508 211t509 -211t212 -508q0 -295 -212 -504.5t-509 -209.5q-299 0 -509 208.5t-210 505.5zM207 694q0 -256 180 -440t436 -184q258 0 438.5 184t180.5 440t-180.5 441.5t-438.5 185.5q-256 0 -436 -185.5t-180 -441.5zM688 1952q0 16 11.5 26.5 t27.5 10.5q23 0 39 -31l180 -318q8 -14 8 -26q0 -29 -30 -29q-23 0 -37 27l-187 307q-12 20 -12 33z" />
<glyph unicode="&#xd3;" horiz-adv-x="1648" d="M104 694q0 297 211 508t508 211t509 -211t212 -508q0 -295 -212 -504.5t-509 -209.5q-299 0 -509 208.5t-210 505.5zM207 694q0 -256 180 -440t436 -184q258 0 438.5 184t180.5 440t-180.5 441.5t-438.5 185.5q-256 0 -436 -185.5t-180 -441.5zM690 1614q0 6 8 26 l181 318q14 31 39 31q16 0 27 -10.5t11 -26.5q0 -12 -12 -33l-186 -307q-14 -27 -35 -27q-33 0 -33 29z" />
<glyph unicode="&#xd4;" horiz-adv-x="1648" d="M104 694q0 297 211 508t508 211t509 -211t212 -508q0 -295 -212 -504.5t-509 -209.5q-299 0 -509 208.5t-210 505.5zM207 694q0 -256 180 -440t436 -184q258 0 438.5 184t180.5 440t-180.5 441.5t-438.5 185.5q-256 0 -436 -185.5t-180 -441.5zM502 1651q0 16 14 30 l270 287q15 19 35 19q23 0 37 -19l268 -287q16 -16 16.5 -30.5t-10 -24.5t-24.5 -10t-27 12l-260 275l-260 -275q-12 -12 -26 -12q-33 0 -33 35z" />
<glyph unicode="&#xd5;" horiz-adv-x="1648" d="M104 694q0 297 211 508t508 211t509 -211t212 -508q0 -295 -212 -504.5t-509 -209.5q-299 0 -509 208.5t-210 505.5zM207 694q0 -256 180 -440t436 -184q258 0 438.5 184t180.5 440t-180.5 441.5t-438.5 185.5q-256 0 -436 -185.5t-180 -441.5zM502 1817q0 29 41 69 q53 49 137 49q66 0 151 -51q86 -55 132 -55q41 0 69.5 21.5t45 42t28.5 20.5q35 0 35 -35q0 -33 -43 -72q-51 -47 -137 -47q-53 0 -148 56q-82 53 -133 53q-57 0 -94 -43t-51 -43q-33 0 -33 35z" />
<glyph unicode="&#xd6;" horiz-adv-x="1648" d="M104 694q0 297 211 508t508 211t509 -211t212 -508q0 -295 -212 -504.5t-509 -209.5q-299 0 -509 208.5t-210 505.5zM207 694q0 -256 180 -440t436 -184q258 0 438.5 184t180.5 440t-180.5 441.5t-438.5 185.5q-256 0 -436 -185.5t-180 -441.5zM596 1790q0 23 16.5 39 t40.5 16q23 0 40.5 -16.5t17.5 -38.5q0 -25 -17.5 -41t-40.5 -16q-25 0 -41 16t-16 41zM936 1790q0 23 16.5 39t40.5 16q23 0 39.5 -16.5t16.5 -38.5q0 -25 -16.5 -41t-39.5 -16q-25 0 -41 16t-16 41z" />
<glyph unicode="&#xd7;" horiz-adv-x="948" d="M69 361.5q1 17.5 13 29.5l332 332l-332 332q-12 12 -13 29.5t11 31.5q31 31 61 -2l332 -332l332 334q33 29 61 0q31 -31 0 -61l-331 -332l331 -332q31 -31 0 -61q-29 -29 -61 0l-332 334l-332 -332q-29 -33 -61 -2q-12 14 -11 31.5z" />
<glyph unicode="&#xd8;" horiz-adv-x="1648" d="M104 694q0 297 212 508t509 211q242 0 439 -153l110 129q14 14 29 14q12 0 22.5 -10.5t10.5 -24.5q0 -18 -11 -25l-108 -126q227 -213 227 -523q0 -295 -211 -504.5t-508 -209.5q-252 0 -442 151l-113 -131q-12 -14 -28 -14q-33 0 -33 34q0 14 10 25l111 129 q-225 209 -226 520zM207 694q0 -262 188 -444l803 936q-164 135 -375 135q-254 0 -435 -186.5t-181 -440.5zM449 203q162 -133 374 -133q256 0 437.5 185t181.5 439q0 262 -193 445z" />
<glyph unicode="&#xd9;" horiz-adv-x="1476" d="M158 551v815q0 18 14 32.5t34.5 14.5t35 -14.5t14.5 -32.5v-801q0 -229 121 -360q131 -137 360 -137q231 0 363 137q121 131 121 360v801q0 18 14 32.5t34.5 14.5t35 -14.5t14.5 -32.5v-815q0 -252 -137 -401q-158 -170 -445 -170q-285 0 -442 170q-137 150 -137 401z M600 1952q0 16 11.5 26.5t27.5 10.5q23 0 39 -31l180 -318q8 -14 8 -26q0 -29 -30 -29q-23 0 -37 27l-187 307q-12 20 -12 33z" />
<glyph unicode="&#xda;" horiz-adv-x="1476" d="M158 551v815q0 18 14 32.5t34.5 14.5t35 -14.5t14.5 -32.5v-801q0 -229 121 -360q131 -137 360 -137q231 0 363 137q121 131 121 360v801q0 18 14 32.5t34.5 14.5t35 -14.5t14.5 -32.5v-815q0 -252 -137 -401q-158 -170 -445 -170q-285 0 -442 170q-137 150 -137 401z M604 1614q0 6 8 26l181 318q14 31 38 31q16 0 27.5 -10.5t11.5 -26.5q0 -12 -12 -33l-186 -307q-14 -27 -35 -27q-33 0 -33 29z" />
<glyph unicode="&#xdb;" horiz-adv-x="1476" d="M158 551v815q0 18 14 32.5t34.5 14.5t35 -14.5t14.5 -32.5v-801q0 -229 121 -360q131 -137 360 -137q231 0 363 137q121 131 121 360v801q0 18 14 32.5t34.5 14.5t35 -14.5t14.5 -32.5v-815q0 -252 -137 -401q-158 -170 -445 -170q-285 0 -442 170q-137 150 -137 401z M418 1651q0 16 14 30l270 287q15 19 35 19q23 0 37 -19l268 -287q16 -16 16.5 -30.5t-10 -24.5t-24.5 -10t-27 12l-260 275l-260 -275q-12 -12 -26 -12q-33 0 -33 35z" />
<glyph unicode="&#xdc;" horiz-adv-x="1476" d="M158 551v815q0 18 14 32.5t34.5 14.5t35 -14.5t14.5 -32.5v-801q0 -229 121 -360q131 -137 360 -137q231 0 363 137q121 131 121 360v801q0 18 14 32.5t34.5 14.5t35 -14.5t14.5 -32.5v-815q0 -252 -137 -401q-158 -170 -445 -170q-285 0 -442 170q-137 150 -137 401z M504 1790q0 23 16.5 39t40.5 16q23 0 40 -16.5t17 -38.5q0 -25 -17 -41t-40 -16q-25 0 -41 16t-16 41zM844 1790q0 23 16.5 39t40.5 16q23 0 39 -16.5t16 -38.5q0 -25 -16 -41t-39 -16q-25 0 -41 16t-16 41z" />
<glyph unicode="&#xdd;" horiz-adv-x="1157" d="M4 1368q0 18 13.5 31.5t33.5 13.5q27 0 47 -29l480 -659l483 659q23 29 45 29q20 0 33.5 -13.5t13.5 -33.5q0 -19 -12 -37l-514 -700v-602q0 -18 -14.5 -32.5t-35 -14.5t-35 14t-14.5 33v602l-512 700q-12 14 -12 39zM446 1614q0 12 9 26l180 318q16 31 39 31 q16 0 27.5 -10.5t11.5 -26.5q0 -12 -13 -33l-186 -307q-14 -27 -35 -27q-33 0 -33 29z" />
<glyph unicode="&#xde;" horiz-adv-x="1261" d="M160 -260v1626q0 18 14 32.5t34.5 14.5t35 -14.5t14.5 -32.5v-272h449q195 0 315 -95q162 -123 162 -350q0 -236 -174 -360q-117 -84 -334 -84h-418v-465q0 -18 -14.5 -32.5t-35 -14.5t-34.5 14.5t-14 32.5zM258 291h401q186 0 285 67q139 101 139 291q0 184 -129 281 q-100 78 -264 78h-432v-717z" />
<glyph unicode="&#xdf;" horiz-adv-x="1105" d="M156 -86v1102q0 193 93 295t265 102q166 0 259 -71.5t93 -217.5q0 -68 -29.5 -118t-72.5 -76.5t-86 -46t-73 -38t-30 -38.5q0 -27 31 -47.5t97.5 -48t95.5 -41.5q207 -113 207 -320q0 -158 -109 -264t-281 -106q-152 0 -254 53q-80 41 -79 80q0 41 39 41q10 0 19 -5.5 t26.5 -17.5t29.5 -20q86 -51 217 -52q133 0 218.5 82t85.5 205q0 170 -175 256q-25 12 -86 39t-88.5 42t-54.5 47t-27 71t45.5 69.5t99.5 50t99 69.5t45 126q0 113 -69.5 168t-192.5 55q-266 0 -266 -323v-1102q0 -18 -14.5 -30.5t-33 -12.5t-31.5 12.5t-13 30.5z" />
<glyph unicode="&#xe0;" horiz-adv-x="962" d="M96 244q0 176 197 245q121 43 438 66v31q0 133 -57 202q-59 72 -193 72q-109 0 -205 -41q-23 -10 -44 -22.5t-32.5 -17.5t-21.5 -5q-35 0 -35 37q0 33 88 74q113 51 256 51q176 0 261 -96q74 -90 73 -254v-563q0 -18 -13 -30.5t-31.5 -12.5t-32 12t-13.5 31v26 q-137 -70 -293 -69q-135 0 -238.5 66.5t-103.5 197.5zM180 250q0 -100 83 -149.5t198 -49.5q143 0 270 76v356q-272 -16 -369 -45q-182 -57 -182 -188zM354 1536q0 16 11.5 26.5t27.5 10.5q23 0 39 -31l180 -317q9 -15 9 -27q0 -29 -31 -29q-23 0 -37 27l-186 307 q-12 20 -13 33z" />
<glyph unicode="&#xe1;" horiz-adv-x="962" d="M96 244q0 176 197 245q121 43 438 66v31q0 133 -57 202q-59 72 -193 72q-109 0 -205 -41q-23 -10 -44 -22.5t-32.5 -17.5t-21.5 -5q-35 0 -35 37q0 33 88 74q113 51 256 51q176 0 261 -96q74 -90 73 -254v-563q0 -18 -13 -30.5t-31.5 -12.5t-32 12t-13.5 31v26 q-137 -70 -293 -69q-135 0 -238.5 66.5t-103.5 197.5zM180 250q0 -100 83 -149.5t198 -49.5q143 0 270 76v356q-272 -16 -369 -45q-182 -57 -182 -188zM348 1198q0 6 8 27l181 317q14 31 38 31q16 0 27.5 -10.5t11.5 -26.5q0 -12 -12 -33l-186 -307q-14 -27 -35 -27 q-33 0 -33 29z" />
<glyph unicode="&#xe2;" horiz-adv-x="962" d="M96 244q0 176 197 245q121 43 438 66v31q0 133 -57 202q-59 72 -193 72q-109 0 -205 -41q-23 -10 -44 -22.5t-32.5 -17.5t-21.5 -5q-35 0 -35 37q0 33 88 74q113 51 256 51q176 0 261 -96q74 -90 73 -254v-563q0 -18 -13 -30.5t-31.5 -12.5t-32 12t-13.5 31v26 q-137 -70 -293 -69q-135 0 -238.5 66.5t-103.5 197.5zM164 1235q0 16 14 31l271 286q14 19 34 19q23 0 37 -19l268 -286q16 -16 16.5 -30.5t-10 -25t-24.5 -10.5t-27 12l-260 275l-260 -275q-12 -12 -26 -12q-33 0 -33 35zM180 250q0 -100 83 -149.5t198 -49.5q143 0 270 76 v356q-272 -16 -369 -45q-182 -57 -182 -188z" />
<glyph unicode="&#xe3;" horiz-adv-x="962" d="M96 244q0 176 197 245q121 43 438 66v31q0 133 -57 202q-59 72 -193 72q-109 0 -205 -41q-23 -10 -44 -22.5t-32.5 -17.5t-21.5 -5q-35 0 -35 37q0 33 88 74q113 51 256 51q176 0 261 -96q74 -90 73 -254v-563q0 -18 -13 -30.5t-31.5 -12.5t-32 12t-13.5 31v26 q-137 -70 -293 -69q-135 0 -238.5 66.5t-103.5 197.5zM160 1335q0 29 41 70q53 49 137 49q66 0 151 -51q86 -55 132 -55q33 0 58.5 13t36.5 28.5t24.5 29t23.5 13.5q35 0 35 -35q0 -33 -43 -72q-51 -47 -138 -47q-53 0 -147 55q-82 53 -133 53q-43 0 -70.5 -21.5t-43 -43 t-31.5 -21.5q-33 0 -33 35zM180 250q0 -100 83 -149.5t198 -49.5q143 0 270 76v356q-272 -16 -369 -45q-182 -57 -182 -188z" />
<glyph unicode="&#xe4;" horiz-adv-x="962" d="M96 244q0 176 197 245q121 43 438 66v31q0 133 -57 202q-59 72 -193 72q-109 0 -205 -41q-23 -10 -44 -22.5t-32.5 -17.5t-21.5 -5q-35 0 -35 37q0 33 88 74q113 51 256 51q176 0 261 -96q74 -90 73 -254v-563q0 -18 -13 -30.5t-31.5 -12.5t-32 12t-13.5 31v26 q-137 -70 -293 -69q-135 0 -238.5 66.5t-103.5 197.5zM180 250q0 -100 83 -149.5t198 -49.5q143 0 270 76v356q-272 -16 -369 -45q-182 -57 -182 -188zM256 1374q0 23 16.5 39.5t40.5 16.5q23 0 40.5 -16.5t17.5 -39.5q0 -25 -17.5 -41t-40.5 -16q-25 0 -41 16.5t-16 40.5z M596 1374q0 23 16.5 39.5t40.5 16.5q23 0 39.5 -16.5t16.5 -39.5q0 -25 -16.5 -41t-39.5 -16q-25 0 -41 16.5t-16 40.5z" />
<glyph unicode="&#xe5;" horiz-adv-x="962" d="M96 244q0 176 197 245q121 43 438 66v31q0 133 -57 202q-59 72 -193 72q-109 0 -205 -41q-23 -10 -44 -22.5t-32.5 -17.5t-21.5 -5q-35 0 -35 37q0 33 88 74q113 51 256 51q176 0 261 -96q74 -90 73 -254v-563q0 -18 -13 -30.5t-31.5 -12.5t-32 12t-13.5 31v26 q-137 -70 -293 -69q-135 0 -238.5 66.5t-103.5 197.5zM180 250q0 -100 83 -149.5t198 -49.5q143 0 270 76v356q-272 -16 -369 -45q-182 -57 -182 -188zM264 1349.5q0 96.5 67.5 164t164 67.5t163 -67.5t66.5 -164t-66.5 -164t-163 -67.5t-164 67.5t-67.5 164zM315 1349.5 q0 -75.5 53.5 -128t127 -52.5t126 52.5t52.5 128t-52.5 129t-126 53.5t-127 -53.5t-53.5 -129z" />
<glyph unicode="&#xe6;" horiz-adv-x="1675" d="M96 240q0 139 151.5 198.5t454.5 69.5v78q0 139 -55 207q-59 72 -182 71q-100 0 -193 -39q-20 -8 -41.5 -20t-33 -18.5t-19.5 -6.5q-14 0 -25.5 10.5t-11.5 24.5q0 31 86 70q106 51 244 51q147 0 219 -80q57 -63 76 -168q27 63 90 131q117 117 297 117q195 0 315 -131 q111 -117 111 -307q0 -49 -53 -49h-731q4 -158 86 -261q109 -137 301 -137q145 0 254 62q12 6 24.5 15t19.5 13t14 7.5t13 3.5q14 0 23.5 -10.5t9.5 -24.5q0 -29 -57 -60q-133 -78 -305 -77q-233 0 -375 170q-162 -170 -373 -170q-154 0 -244 74.5t-90 185.5zM182 242 q0 -80 71 -136.5t198 -56.5q182 0 319 152q-66 109 -65 248q-270 -8 -396.5 -57.5t-126.5 -149.5zM795 506h698q-2 156 -88 252q-94 109 -250 108q-176 0 -276 -121q-80 -96 -84 -239z" />
<glyph unicode="&#xe7;" horiz-adv-x="954" d="M98 459q0 182 109 307q139 168 377 168q127 0 233 -51q51 -27 51 -58q0 -14 -11 -26.5t-25.5 -12.5t-63.5 25q-78 39 -182 39q-188 0 -305 -133q-90 -106 -91 -260q0 -180 107 -287q111 -111 289 -111q119 0 188 35q49 25 63.5 25t24.5 -11.5t10 -25.5q0 -33 -59 -59 q-88 -39 -209 -43v-60q78 -2 130 -37.5t52 -103.5q0 -86 -71.5 -126t-161.5 -40q-37 0 -68 6q-25 6 -24 29q0 27 26 26q6 0 29 -3t43 -3q63 0 111.5 26.5t48.5 84.5q0 49 -40 72.5t-95 23.5q-39 0 -37 41l4 66q-203 10 -324 133q-129 133 -129 344z" />
<glyph unicode="&#xe8;" horiz-adv-x="1073" d="M98 471q0 197 119 328q121 137 334 137q195 0 315 -131q111 -121 111 -307q0 -57 -53 -58h-731q6 -154 86 -247q106 -135 301 -136q145 0 254 62q12 6 24 14t18.5 12.5t13.5 7.5t13 3q14 0 24.5 -12.5t10.5 -26.5q0 -27 -55 -60q-137 -78 -308 -77q-229 0 -364 157 q-113 133 -113 334zM193 510h696q-2 154 -88 242q-92 106 -250 106q-178 0 -275 -119q-77 -90 -83 -229zM401 1536q0 16 11.5 26.5t27.5 10.5q23 0 39 -31l180 -317q9 -15 9 -27q0 -29 -31 -29q-23 0 -37 27l-186 307q-12 20 -13 33z" />
<glyph unicode="&#xe9;" horiz-adv-x="1073" d="M98 471q0 197 119 328q121 137 334 137q195 0 315 -131q111 -121 111 -307q0 -57 -53 -58h-731q6 -154 86 -247q106 -135 301 -136q145 0 254 62q12 6 24 14t18.5 12.5t13.5 7.5t13 3q14 0 24.5 -12.5t10.5 -26.5q0 -27 -55 -60q-137 -78 -308 -77q-229 0 -364 157 q-113 133 -113 334zM193 510h696q-2 154 -88 242q-92 106 -250 106q-178 0 -275 -119q-77 -90 -83 -229zM397 1198q0 6 9 27l180 317q14 31 39 31q16 0 27.5 -10.5t11.5 -26.5q0 -12 -13 -33l-186 -307q-14 -27 -35 -27q-33 0 -33 29z" />
<glyph unicode="&#xea;" horiz-adv-x="1073" d="M98 471q0 197 119 328q121 137 334 137q195 0 315 -131q111 -121 111 -307q0 -57 -53 -58h-731q6 -154 86 -247q106 -135 301 -136q145 0 254 62q12 6 24 14t18.5 12.5t13.5 7.5t13 3q14 0 24.5 -12.5t10.5 -26.5q0 -27 -55 -60q-137 -78 -308 -77q-229 0 -364 157 q-113 133 -113 334zM193 510h696q-2 154 -88 242q-92 106 -250 106q-178 0 -275 -119q-77 -90 -83 -229zM211 1235q0 16 14 31l271 286q14 19 34 19q23 0 37 -19l269 -286q16 -16 16 -30.5t-10.5 -25t-24.5 -10.5t-26 12l-261 275l-260 -275q-12 -12 -26 -12q-33 0 -33 35z " />
<glyph unicode="&#xeb;" horiz-adv-x="1073" d="M98 471q0 197 119 328q121 137 334 137q195 0 315 -131q111 -121 111 -307q0 -57 -53 -58h-731q6 -154 86 -247q106 -135 301 -136q145 0 254 62q12 6 24 14t18.5 12.5t13.5 7.5t13 3q14 0 24.5 -12.5t10.5 -26.5q0 -27 -55 -60q-137 -78 -308 -77q-229 0 -364 157 q-113 133 -113 334zM193 510h696q-2 154 -88 242q-92 106 -250 106q-178 0 -275 -119q-77 -90 -83 -229zM303 1374q0 23 16.5 39.5t40.5 16.5q23 0 40.5 -16.5t17.5 -39.5q0 -25 -17.5 -41t-40.5 -16q-25 0 -41 16.5t-16 40.5zM643 1374q0 23 16.5 39.5t40.5 16.5 q23 0 39.5 -16.5t16.5 -39.5q0 -25 -16.5 -41t-39.5 -16q-25 0 -41 16.5t-16 40.5z" />
<glyph unicode="&#xec;" horiz-adv-x="401" d="M70 1536q0 16 11 26.5t28 10.5q23 0 38 -31l181 -317q8 -15 8 -27q0 -29 -31 -29q-23 0 -37 27l-186 307q-12 20 -12 33zM156 23v870q0 18 13 30.5t31.5 12.5t32 -12.5t13.5 -30.5v-870q0 -18 -13.5 -30.5t-32 -12.5t-31.5 12t-13 31z" />
<glyph unicode="&#xed;" horiz-adv-x="401" d="M72 1198q0 6 8 27l180 317q14 31 39 31q16 0 27.5 -10.5t11.5 -26.5q0 -12 -12 -33l-187 -307q-14 -27 -35 -27q-32 0 -32 29zM156 23v870q0 18 13 30.5t31.5 12.5t32 -12.5t13.5 -30.5v-870q0 -18 -13.5 -30.5t-32 -12.5t-31.5 12t-13 31z" />
<glyph unicode="&#xee;" horiz-adv-x="401" d="M-117 1235q0 16 15 31l270 286q15 19 35 19q23 0 37 -19l268 -286q16 -16 16 -30.5t-10 -25t-24.5 -10.5t-26.5 12l-260 275l-260 -275q-12 -12 -27 -12q-33 0 -33 35zM156 23v870q0 18 13 30.5t31.5 12.5t32 -12.5t13.5 -30.5v-870q0 -18 -13.5 -30.5t-32 -12.5 t-31.5 12t-13 31z" />
<glyph unicode="&#xef;" horiz-adv-x="401" d="M-23 1374q0 23 16.5 39.5t41.5 16.5q23 0 40 -16.5t17 -39.5q0 -25 -17 -41t-40 -16q-25 0 -41.5 16.5t-16.5 40.5zM156 23v870q0 18 13 30.5t31.5 12.5t32 -12.5t13.5 -30.5v-870q0 -18 -13.5 -30.5t-32 -12.5t-31.5 12t-13 31zM317 1374q0 23 16.5 39.5t41.5 16.5 q23 0 39 -16.5t16 -39.5q0 -25 -16 -41t-39 -16q-25 0 -41.5 16.5t-16.5 40.5z" />
<glyph unicode="&#xf0;" horiz-adv-x="1038" d="M98 422q0 170 111 280q125 125 297 125q160 0 297 -94q-72 238 -264 445l-195 -152q-25 -14 -33 -14q-12 0 -21 10t-9 22q0 16 18 31l190 146q-92 88 -129 114q-29 20 -28 37q0 18 12 29.5t31 11.5q23 0 94 -61q45 -41 86 -80l168 129q14 12 29 12q29 0 28 -31 q0 -18 -18 -30l-160 -123q152 -162 244 -363.5t92 -410.5q0 -229 -122 -352t-304 -123q-164 0 -274 98q-139 123 -140 344zM184 422q0 -186 109 -285q86 -82 219 -82q145 0 243.5 102.5t98.5 297.5q0 94 -23 196q-150 106 -313 107q-141 0 -246 -105q-88 -88 -88 -231z" />
<glyph unicode="&#xf1;" horiz-adv-x="1110" d="M156 23v870q0 18 13 30.5t31.5 12.5t32 -12.5t13.5 -30.5v-162q100 205 348 205q168 0 264 -80q111 -98 111 -317v-516q0 -18 -13.5 -30.5t-32 -12.5t-30.5 12.5t-12 30.5v493q0 190 -88 270q-74 68 -213 68q-186 0 -277 -162q-57 -109 -57 -231v-438q0 -18 -13.5 -30.5 t-32 -12.5t-31.5 12t-13 31zM207 1335q0 29 41 70q53 49 137 49q66 0 152 -51q86 -55 131 -55q33 0 58.5 13t36.5 28.5t24.5 29t23.5 13.5q35 0 35 -35q0 -33 -43 -72q-51 -47 -137 -47q-53 0 -148 55q-82 53 -133 53q-57 0 -94 -43t-51 -43q-33 0 -33 35z" />
<glyph unicode="&#xf2;" horiz-adv-x="1163" d="M98 459q0 199 131 334q137 143 353 143q213 0 350 -143q131 -135 131 -334q0 -201 -131 -336q-139 -143 -350 -143q-213 0 -353 143q-131 135 -131 336zM188 459q0 -166 101 -279q115 -125 293 -125q176 0 290 125q102 115 103 279q0 162 -103 276q-117 127 -290 127 q-176 0 -293 -127q-101 -112 -101 -276zM446 1536q0 16 11.5 26.5t27.5 10.5q23 0 39 -31l181 -317q8 -15 8 -27q0 -29 -31 -29q-23 0 -37 27l-186 307q-12 20 -13 33z" />
<glyph unicode="&#xf3;" horiz-adv-x="1163" d="M98 459q0 199 131 334q137 143 353 143q213 0 350 -143q131 -135 131 -334q0 -201 -131 -336q-139 -143 -350 -143q-213 0 -353 143q-131 135 -131 336zM188 459q0 -166 101 -279q115 -125 293 -125q176 0 290 125q102 115 103 279q0 162 -103 276q-117 127 -290 127 q-176 0 -293 -127q-101 -112 -101 -276zM446 1198q0 6 9 27l180 317q14 31 39 31q16 0 27.5 -10.5t11.5 -26.5q0 -12 -13 -33l-186 -307q-14 -27 -35 -27q-33 0 -33 29z" />
<glyph unicode="&#xf4;" horiz-adv-x="1163" d="M98 459q0 199 131 334q137 143 353 143q213 0 350 -143q131 -135 131 -334q0 -201 -131 -336q-139 -143 -350 -143q-213 0 -353 143q-131 135 -131 336zM188 459q0 -166 101 -279q115 -125 293 -125q176 0 290 125q102 115 103 279q0 162 -103 276q-117 127 -290 127 q-176 0 -293 -127q-101 -112 -101 -276zM260 1235q0 16 14 31l271 286q15 19 35 19q23 0 36 -19l269 -286q16 -16 16 -30.5t-10 -25t-24.5 -10.5t-26.5 12l-260 275l-261 -275q-12 -12 -26 -12q-33 0 -33 35z" />
<glyph unicode="&#xf5;" horiz-adv-x="1163" d="M98 459q0 199 131 334q137 143 353 143q213 0 350 -143q131 -135 131 -334q0 -201 -131 -336q-139 -143 -350 -143q-213 0 -353 143q-131 135 -131 336zM188 459q0 -166 101 -279q115 -125 293 -125q176 0 290 125q102 115 103 279q0 162 -103 276q-117 127 -290 127 q-176 0 -293 -127q-101 -112 -101 -276zM260 1335q0 29 41 70q53 49 137 49q66 0 152 -51q86 -55 131 -55q33 0 58.5 13t36.5 28.5t24.5 29t23.5 13.5q35 0 35 -35q0 -33 -43 -72q-51 -47 -137 -47q-53 0 -148 55q-82 53 -133 53q-57 0 -94 -43t-51 -43q-33 0 -33 35z" />
<glyph unicode="&#xf6;" horiz-adv-x="1163" d="M98 459q0 199 131 334q137 143 353 143q213 0 350 -143q131 -135 131 -334q0 -201 -131 -336q-139 -143 -350 -143q-213 0 -353 143q-131 135 -131 336zM188 459q0 -166 101 -279q115 -125 293 -125q176 0 290 125q102 115 103 279q0 162 -103 276q-117 127 -290 127 q-176 0 -293 -127q-101 -112 -101 -276zM352 1374q0 23 16.5 39.5t41.5 16.5q23 0 40 -16.5t17 -39.5q0 -25 -17 -41t-40 -16q-25 0 -41.5 16.5t-16.5 40.5zM692 1374q0 23 16.5 39.5t41.5 16.5q23 0 39 -16.5t16 -39.5q0 -25 -16 -41t-39 -16q-25 0 -41.5 16.5t-16.5 40.5z " />
<glyph unicode="&#xf7;" horiz-adv-x="1163" d="M72 723q0 16 12 28.5t29 12.5h936q18 0 30.5 -12.5t12.5 -28.5q0 -18 -12.5 -30.5t-30.5 -12.5h-936q-16 0 -28.5 12.5t-12.5 30.5zM520 1155q0 25 17.5 42t44.5 17q25 0 41 -17t16 -42q0 -27 -16.5 -43t-40.5 -16q-27 0 -44.5 16t-17.5 43zM522 289q0 27 16.5 44t43 17 t43 -17.5t16.5 -43.5q0 -25 -16.5 -42.5t-43 -17.5t-43 17.5t-16.5 42.5z" />
<glyph unicode="&#xf8;" horiz-adv-x="1181" d="M98 459q0 199 131 334q137 143 353 143q170 0 301 -98l73 86q10 12 21 12q27 0 27 -27q0 -10 -9 -18l-75 -88l12 -10q131 -135 131 -334q0 -201 -131 -336q-139 -143 -350 -143q-168 0 -293 90l-68 -78q-8 -12 -22 -12q-25 0 -25 26q0 6 8 19l68 77q-12 8 -21 21 q-131 135 -131 336zM188 459q0 -166 101 -279l14 -16l526 612q-109 86 -247 86q-176 0 -293 -127q-101 -112 -101 -276zM342 131q100 -76 240 -76q176 0 290 125q102 115 103 279q-1 161 -103 276l-6 6z" />
<glyph unicode="&#xf9;" horiz-adv-x="1095" d="M141 383v510q0 18 13.5 30.5t32 12.5t31.5 -12.5t13 -30.5v-498q0 -127 43 -207q72 -125 273 -125q203 0 274 125q43 76 43 207v498q0 18 13.5 30.5t32 12.5t31.5 -12.5t13 -30.5v-510q0 -156 -61 -252q-92 -152 -346 -151q-252 0 -344 151q-62 96 -62 252zM414 1536 q0 16 11 26.5t28 10.5q23 0 39 -31l180 -317q8 -15 8 -27q0 -29 -31 -29q-23 0 -37 27l-186 307q-12 20 -12 33z" />
<glyph unicode="&#xfa;" horiz-adv-x="1095" d="M141 383v510q0 18 13.5 30.5t32 12.5t31.5 -12.5t13 -30.5v-498q0 -127 43 -207q72 -125 273 -125q203 0 274 125q43 76 43 207v498q0 18 13.5 30.5t32 12.5t31.5 -12.5t13 -30.5v-510q0 -156 -61 -252q-92 -152 -346 -151q-252 0 -344 151q-62 96 -62 252zM414 1198 q0 6 8 27l180 317q14 31 39 31q16 0 27.5 -10.5t11.5 -26.5q0 -12 -12 -33l-187 -307q-14 -27 -35 -27q-32 0 -32 29z" />
<glyph unicode="&#xfb;" horiz-adv-x="1095" d="M141 383v510q0 18 13.5 30.5t32 12.5t31.5 -12.5t13 -30.5v-498q0 -127 43 -207q72 -125 273 -125q203 0 274 125q43 76 43 207v498q0 18 13.5 30.5t32 12.5t31.5 -12.5t13 -30.5v-510q0 -156 -61 -252q-92 -152 -346 -151q-252 0 -344 151q-62 96 -62 252zM227 1235 q0 16 15 31l270 286q15 19 35 19q23 0 37 -19l268 -286q16 -16 16 -30.5t-10 -25t-24.5 -10.5t-26.5 12l-260 275l-260 -275q-12 -12 -27 -12q-33 0 -33 35z" />
<glyph unicode="&#xfc;" horiz-adv-x="1095" d="M141 383v510q0 18 13.5 30.5t32 12.5t31.5 -12.5t13 -30.5v-498q0 -127 43 -207q72 -125 273 -125q203 0 274 125q43 76 43 207v498q0 18 13.5 30.5t32 12.5t31.5 -12.5t13 -30.5v-510q0 -156 -61 -252q-92 -152 -346 -151q-252 0 -344 151q-62 96 -62 252zM322 1374 q0 23 16 39.5t41 16.5q23 0 40 -16.5t17 -39.5q0 -25 -17 -41t-40 -16q-25 0 -41 16.5t-16 40.5zM662 1374q0 23 16 39.5t41 16.5q23 0 39 -16.5t16 -39.5q0 -25 -16 -41t-39 -16q-25 0 -41 16.5t-16 40.5z" />
<glyph unicode="&#xfd;" horiz-adv-x="899" d="M12 889q0 20 14.5 33.5t34.5 13.5q33 0 45 -31l359 -842l330 836q16 37 45 37q18 0 32.5 -13.5t14.5 -32t-13 -46.5l-358 -891q-82 -207 -183.5 -315.5t-248.5 -108.5q-20 0 -32.5 13.5t-12.5 31.5t12 31.5t33 13.5q115 0 190.5 82t145.5 250l-397 901q-10 25 -11 37z M315 1198q0 6 9 27l180 317q14 31 39 31q16 0 27.5 -10.5t11.5 -26.5q0 -12 -13 -33l-186 -307q-14 -27 -35 -27q-33 0 -33 29z" />
<glyph unicode="&#xfe;" horiz-adv-x="1052" d="M156 -430v1798q0 18 13 31.5t31.5 13.5t32 -13.5t13.5 -31.5v-444q106 12 174 12q240 0 383 -127q150 -129 149 -348q0 -209 -118 -342q-133 -139 -336 -139q-145 0 -252 53v-463q0 -18 -13.5 -30.5t-32 -12.5t-31.5 12t-13 31zM246 109q109 -55 246 -56q162 0 268 113 q102 106 102 295q0 182 -114 291q-121 111 -322 110q-102 0 -180 -14v-739z" />
<glyph unicode="&#xff;" horiz-adv-x="899" d="M12 889q0 20 14.5 33.5t34.5 13.5q33 0 45 -31l359 -842l330 836q16 37 45 37q18 0 32.5 -13.5t14.5 -32t-13 -46.5l-358 -891q-82 -207 -183.5 -315.5t-248.5 -108.5q-20 0 -32.5 13.5t-12.5 31.5t12 31.5t33 13.5q115 0 190.5 82t145.5 250l-397 901q-10 25 -11 37z M221 1374q0 23 16.5 39.5t41.5 16.5q23 0 40 -16.5t17 -39.5q0 -25 -17 -41t-40 -16q-25 0 -41.5 16.5t-16.5 40.5zM561 1374q0 23 16.5 39.5t40.5 16.5q23 0 39.5 -16.5t16.5 -39.5q0 -25 -16.5 -41t-39.5 -16q-25 0 -41 16.5t-16 40.5z" />
<glyph unicode="&#x152;" horiz-adv-x="2490" d="M104 694q0 297 212 509t509 212q195 0 360 -98t261 -262v291q0 20 14.5 34.5t34.5 14.5h889q16 0 28.5 -13.5t12.5 -29.5q0 -18 -12.5 -30.5t-28.5 -12.5h-840v-568h733q18 0 30.5 -13t12.5 -30q0 -18 -12 -31.5t-31 -13.5h-733v-567h840q16 0 28.5 -12.5t12.5 -30.5 t-12.5 -30.5t-28.5 -12.5h-889q-20 0 -34.5 14.5t-14.5 32.5v287q-96 -162 -261 -258t-360 -96q-299 0 -510 208.5t-211 505.5zM207 694q0 -254 180 -439t436 -185t437.5 185t181.5 439t-181.5 441.5t-437.5 187.5q-254 0 -435 -187.5t-181 -441.5z" />
<glyph unicode="&#x153;" horiz-adv-x="1949" d="M98 459q0 199 131 334q137 143 353 143q213 0 350 -143q53 -57 82 -119q31 70 80 125q121 137 333 137q195 0 316 -131q111 -121 110 -307q0 -57 -53 -58h-731q6 -154 86 -247q113 -135 301 -136q145 0 254 62q12 6 24.5 14t18.5 12.5t13.5 7.5t13.5 3q14 0 24.5 -12.5 t10.5 -26.5q0 -27 -56 -60q-137 -78 -307 -77q-229 0 -365 157q-41 47 -69 111q-35 -74 -86 -125q-139 -143 -350 -143q-213 0 -353 143q-131 135 -131 336zM188 459q0 -166 101 -279q115 -125 293 -125q176 0 290 125q102 115 103 291q0 152 -103 264q-117 127 -290 127 q-176 0 -293 -127q-101 -112 -101 -276zM1069 510h696q-2 145 -88 242q-100 106 -250 106q-178 0 -274 -119q-78 -90 -84 -229z" />
<glyph unicode="&#x178;" horiz-adv-x="1157" d="M4 1368q0 18 13.5 31.5t33.5 13.5q27 0 47 -29l480 -659l483 659q23 29 45 29q20 0 33.5 -13.5t13.5 -33.5q0 -19 -12 -37l-514 -700v-602q0 -18 -14.5 -32.5t-35 -14.5t-35 14t-14.5 33v602l-512 700q-12 14 -12 39zM350 1855q0 23 16.5 39.5t41.5 16.5q23 0 40 -16.5 t17 -39.5q0 -25 -17 -41t-40 -16q-25 0 -41.5 16.5t-16.5 40.5zM690 1855q0 23 16.5 39.5t41.5 16.5q23 0 39 -16.5t16 -39.5q0 -25 -16 -41t-39 -16q-25 0 -41.5 16.5t-16.5 40.5z" />
<glyph unicode="&#x2c6;" horiz-adv-x="802" d="M82 1235q0 16 14 31l271 286q22 19 34 19q14 0 37 -19l269 -286q16 -16 16 -30.5t-10.5 -25t-24.5 -10.5t-26 12l-261 275l-260 -275q-12 -12 -26 -12q-33 0 -33 35z" />
<glyph unicode="&#x2dc;" horiz-adv-x="802" d="M82 1335q0 29 41 70q53 49 133 49q66 0 152 -51q86 -55 131 -55q47 0 86 30q10 8 22 22.5t21.5 23t17.5 8.5q35 0 35 -35q0 -31 -43 -70q-49 -49 -133 -49q-53 0 -148 55q-82 53 -133 53q-49 0 -88 -34q-10 -8 -21.5 -22.5t-20.5 -22t-19 -7.5q-33 0 -33 35z" />
<glyph unicode="&#x2000;" horiz-adv-x="1000" />
<glyph unicode="&#x2001;" horiz-adv-x="2001" />
<glyph unicode="&#x2002;" horiz-adv-x="1000" />
<glyph unicode="&#x2003;" horiz-adv-x="2001" />
<glyph unicode="&#x2004;" horiz-adv-x="667" />
<glyph unicode="&#x2005;" horiz-adv-x="500" />
<glyph unicode="&#x2006;" horiz-adv-x="333" />
<glyph unicode="&#x2007;" horiz-adv-x="333" />
<glyph unicode="&#x2008;" horiz-adv-x="250" />
<glyph unicode="&#x2009;" horiz-adv-x="400" />
<glyph unicode="&#x200a;" horiz-adv-x="111" />
<glyph unicode="&#x2010;" horiz-adv-x="1001" d="M174 602q0 18 12.5 30.5t28.5 12.5h571q16 0 28.5 -12t12.5 -31q0 -16 -12.5 -28.5t-28.5 -12.5h-571q-16 0 -28.5 12.5t-12.5 28.5z" />
<glyph unicode="&#x2011;" horiz-adv-x="1001" d="M174 602q0 18 12.5 30.5t28.5 12.5h571q16 0 28.5 -12t12.5 -31q0 -16 -12.5 -28.5t-28.5 -12.5h-571q-16 0 -28.5 12.5t-12.5 28.5z" />
<glyph unicode="&#x2012;" horiz-adv-x="1001" d="M174 602q0 18 12.5 30.5t28.5 12.5h571q16 0 28.5 -12t12.5 -31q0 -16 -12.5 -28.5t-28.5 -12.5h-571q-16 0 -28.5 12.5t-12.5 28.5z" />
<glyph unicode="&#x2013;" horiz-adv-x="1413" d="M174 516q0 16 12.5 29.5t28.5 13.5h983q16 0 28.5 -13.5t12.5 -29.5q0 -18 -12.5 -30.5t-28.5 -12.5h-983q-16 0 -28.5 12.5t-12.5 30.5z" />
<glyph unicode="&#x2014;" horiz-adv-x="2478" d="M174 516q0 16 12.5 29.5t28.5 13.5h2048q16 0 28.5 -13.5t12.5 -29.5q0 -18 -12.5 -30.5t-28.5 -12.5h-2048q-16 0 -28.5 12.5t-12.5 30.5z" />
<glyph unicode="&#x2018;" horiz-adv-x="356" d="M111 1262q0 59 39.5 105t72.5 46q21 0 21 -18q0 -10 -22.5 -34t-22.5 -48q0 -16 23.5 -37t23.5 -49q0 -25 -16.5 -41.5t-45.5 -16.5q-74 0 -73 93z" />
<glyph unicode="&#x2019;" horiz-adv-x="356" d="M111 1356q0 25 16 42t45 17q74 0 74 -92q0 -59 -40 -106.5t-73 -47.5q-18 1 -18 19q0 12 21.5 35.5t21.5 46.5q0 18 -23.5 38.5t-23.5 47.5z" />
<glyph unicode="&#x201a;" horiz-adv-x="321" d="M102 39q0 25 16.5 42t45.5 17q74 0 74 -92q0 -61 -40 -107t-73 -46q-19 0 -19 18q0 12 22 35.5t22 46.5q0 16 -24 37.5t-24 48.5z" />
<glyph unicode="&#x201c;" horiz-adv-x="600" d="M111 1262q0 59 39.5 105t72.5 46q21 0 21 -18q0 -10 -22.5 -34t-22.5 -48q0 -16 23.5 -37t23.5 -49q0 -25 -16.5 -41.5t-45.5 -16.5q-74 0 -73 93zM352 1262q0 61 40 106t75 45q18 0 18 -18q0 -10 -21.5 -34t-21.5 -48q0 -16 23.5 -37t23.5 -49q0 -25 -17 -41.5 t-46 -16.5q-74 0 -74 93z" />
<glyph unicode="&#x201d;" horiz-adv-x="600" d="M111 1356q0 25 16 42t45 17q74 0 74 -92q0 -59 -40 -106.5t-73 -47.5q-18 1 -18 19q0 12 21.5 35.5t21.5 46.5q0 18 -23.5 38.5t-23.5 47.5zM352 1356q0 25 17.5 42t46.5 17q74 0 73 -92q0 -61 -39.5 -107.5t-74.5 -46.5q-19 1 -19 19q0 12 21.5 35.5t21.5 46.5 q0 18 -23.5 38.5t-23.5 47.5z" />
<glyph unicode="&#x201e;" horiz-adv-x="565" d="M102 39q0 25 16.5 42t45.5 17q74 0 74 -92q0 -61 -40 -107t-73 -46q-19 0 -19 18q0 12 22 35.5t22 46.5q0 16 -24 37.5t-24 48.5zM344 39q0 25 17.5 42t46.5 17q74 0 73 -92q0 -61 -40 -107t-74 -46q-19 0 -19 18q0 12 21.5 35.5t21.5 46.5q0 16 -23.5 37.5t-23.5 48.5z " />
<glyph unicode="&#x2022;" horiz-adv-x="1044" d="M109 698q0 170 121.5 292t291.5 122t292 -122t122 -292t-122 -291.5t-292 -121.5t-291.5 121.5t-121.5 291.5z" />
<glyph unicode="&#x2026;" horiz-adv-x="1155" d="M102 43q0 25 17.5 41t44.5 16q25 0 41 -16t16 -41q0 -27 -16.5 -44t-40.5 -17q-27 0 -44.5 17t-17.5 44zM526 43q0 25 17.5 41t44.5 16q25 0 42 -16t17 -41q0 -27 -17.5 -44t-41.5 -17q-27 0 -44.5 17t-17.5 44zM952 43q0 25 16.5 41t43 16t43 -16t16.5 -41 q0 -27 -16.5 -44t-43 -17t-43 17t-16.5 44z" />
<glyph unicode="&#x202f;" horiz-adv-x="400" />
<glyph unicode="&#x2039;" horiz-adv-x="663" d="M78 460.5q0 12.5 14 31.5l422 434q12 14 30.5 14t30 -11t11.5 -28q0 -18 -13 -31l-395 -409l395 -410q12 -12 13 -31q0 -38 -41 -38q-18 0 -31 14l-422 434q-14 18 -14 30.5z" />
<glyph unicode="&#x203a;" horiz-adv-x="663" d="M78 20q0 16 14 31l395 410l-395 409q-14 14 -14 31t12 28t30.5 11t31.5 -14l421 -434q12 -16 12.5 -31t-12.5 -31l-421 -434q-13 -14 -31 -14q-43 0 -43 38z" />
<glyph unicode="&#x205f;" horiz-adv-x="500" />
<glyph unicode="&#x20ac;" d="M-18 561q0 12 9 20.5t19 8.5h101q-6 51 -7 108q0 51 7 105h-101q-10 0 -19 8t-9 20.5t9 21.5t19 9h113q57 238 251.5 394.5t434.5 156.5q193 0 348 -78q86 -39 86 -80q0 -20 -13 -33.5t-32 -13.5q-12 0 -30.5 12.5t-51.5 32t-72 33.5q-109 39 -235 39q-201 0 -365.5 -131 t-218.5 -332h807q29 0 29 -31q0 -29 -29 -28h-819q-8 -47 -8 -105q0 -61 8 -108h700q29 0 29 -29t-29 -29h-690q51 -213 216 -338.5t372 -125.5q131 0 233 38q39 14 75 35t55.5 32t31.5 11q41 0 41 -45q0 -41 -86 -82q-156 -78 -352 -77q-250 0 -442.5 150.5t-245.5 401.5 h-111q-10 0 -19 8.5t-9 20.5z" />
<glyph unicode="&#x2122;" horiz-adv-x="1542" d="M51 1432q0 12 9.5 20t19.5 8h528q10 0 19.5 -8t9.5 -20q0 -27 -29 -27h-233v-657q0 -12 -9.5 -21.5t-21.5 -9.5q-31 0 -31 31v657h-233q-29 0 -29 27zM717 748v688q0 31 33 30q23 0 36 -24l291 -477l293 477q14 25 37 24q33 0 33 -30v-688q0 -31 -31 -31q-12 0 -21.5 9 t-9.5 22v595l-270 -442q-14 -20 -30.5 -20t-30.5 20l-269 442v-595q0 -12 -9 -21.5t-21 -9.5q-31 0 -31 31z" />
<glyph unicode="&#x25fc;" horiz-adv-x="931" d="M0 0v932h932v-932h-932z" />
</font>
</defs>
</svg>
