<?xml version="1.0" standalone="no"?>
<!DOCTYPE svg PUBLIC "-//W3C//DTD SVG 1.1//EN" "http://www.w3.org/Graphics/SVG/1.1/DTD/svg11.dtd" >
<svg xmlns="http://www.w3.org/2000/svg" xmlns:xlink="http://www.w3.org/1999/xlink" version="1.1">
<metadata></metadata>
<defs>
<font id="houschkaroundedaltregular" horiz-adv-x="1228" >
<font-face units-per-em="2048" ascent="1544" descent="-504" />
<missing-glyph horiz-adv-x="534" />
<glyph unicode="&#xfb01;" horiz-adv-x="1202" d="M-10 815q0 51 38 90t89 39h53v90q0 160 90 268.5t307 108.5q172 0 295 -45q158 -59 158 -166q0 -59 -39 -96t-119 -37q-45 0 -123 33q-82 37 -123 37q-115 0 -114 -154v-39h409q80 0 123 -45t43 -115v-645q0 -66 -49 -112.5t-117 -46.5q-70 0 -118 47t-48 112v545h-243 v-545q0 -66 -49.5 -112.5t-117 -46.5t-116.5 47t-49 112v545h-53q-53 0 -90 38t-37 93z" />
<glyph unicode="&#xfb02;" horiz-adv-x="1202" d="M-10 815q0 51 38 90t89 39h53v90q0 72 20.5 135.5t64.5 120t127 89t198 32.5q182 0 305 -45q117 -43 154.5 -105.5t37.5 -187.5v-934q0 -66 -49 -112.5t-116.5 -46.5t-117 47t-49.5 112v924q0 35 -36.5 54.5t-83.5 19.5q-123 0 -123 -154v-39h76q51 0 87.5 -39t36.5 -90 q0 -55 -35.5 -93t-88.5 -38h-76v-545q0 -66 -49.5 -112.5t-117 -46.5t-116.5 47t-49 112v545h-53q-53 0 -90 38t-37 93z" />
<glyph unicode="&#xfb03;" horiz-adv-x="1843" d="M-10 815q0 51 38 90t89 39h53v90q0 156 79 266.5t243 110.5q109 0 188 -31q119 -47 119 -149q0 -53 -31 -89t-76 -36q-25 0 -61 8q-33 8 -51 8q-78 0 -78 -112v-66h309v90q0 160 90 268.5t307 108.5q172 0 295 -45q158 -59 158 -166q0 -59 -39 -96t-119 -37 q-45 0 -123 33q-82 37 -123 37q-115 0 -114 -154v-39h409q78 0 122 -45t44 -115v-645q0 -66 -49 -112.5t-117 -46.5q-70 0 -118 47t-48 112v545h-243v-545q0 -66 -49.5 -112.5t-117 -46.5t-116.5 47t-49 112v545h-309v-545q0 -66 -49.5 -112.5t-117 -46.5t-116.5 47t-49 112 v545h-53q-53 0 -90 38t-37 93z" />
<glyph unicode="&#xfb04;" horiz-adv-x="1843" d="M-10 815q0 51 38 90t89 39h53v90q0 156 79 266.5t243 110.5q109 0 188 -31q119 -47 119 -149q0 -53 -31 -89t-76 -36q-25 0 -61 8q-33 8 -51 8q-78 0 -78 -112v-66h309v90q0 160 90 268.5t307 108.5q172 0 295 -45q121 -45 168 -109.5t47 -183.5v-934q0 -66 -49 -112.5 t-116.5 -46.5t-117 47t-49.5 112v924q0 35 -36.5 54.5t-83.5 19.5q-123 0 -123 -154v-39h76q51 0 87.5 -39t36.5 -90q0 -55 -35.5 -93t-88.5 -38h-76v-545q0 -66 -49.5 -112.5t-117 -46.5t-116.5 47t-49 112v545h-309v-545q0 -66 -49.5 -112.5t-117 -46.5t-116.5 47t-49 112 v545h-53q-53 0 -90 38t-37 93z" />
<glyph horiz-adv-x="0" />
<glyph unicode="&#xd;" horiz-adv-x="681" />
<glyph unicode=" "  horiz-adv-x="534" />
<glyph unicode="&#x09;" horiz-adv-x="534" />
<glyph unicode="&#xa0;" horiz-adv-x="534" />
<glyph unicode="!" horiz-adv-x="737" d="M145 1124q0 291 223.5 291t223.5 -291q0 -90 -35 -219l-78 -303q-8 -35 -17 -54.5t-32.5 -36.5t-60.5 -17t-60.5 18t-31 36.5t-17.5 53.5l-80 303q-35 129 -35 219zM172 178q0 82 57.5 139.5t139.5 57.5t139 -56.5t57 -140.5q0 -82 -57 -139t-139 -57t-139.5 57 t-57.5 139z" />
<glyph unicode="&#x22;" horiz-adv-x="823" d="M66 1280q0 57 39.5 96t107.5 39t107.5 -39t39.5 -96q0 -18 -2 -37l-26 -213q-10 -72 -35 -104.5t-84 -32.5t-84 32.5t-35 104.5l-26 213q-2 18 -2 37zM463 1280q0 57 39.5 96t107.5 39t107.5 -39t39.5 -96q0 -18 -2 -37l-26 -213q-10 -72 -35 -104.5t-84 -32.5t-84 32.5 t-35 104.5l-26 213q-2 18 -2 37z" />
<glyph unicode="#" horiz-adv-x="1388" d="M0 307q0 53 37 91t88 38h160l49 232h-115q-51 0 -88 37.5t-37 91t37 91.5t88 38h168l51 243q10 51 54.5 78t97.5 17q51 -10 80.5 -54.5t19.5 -95.5l-39 -188h242l51 243q10 51 55 78t96.5 16.5t81 -54.5t19.5 -95l-39 -188h105q51 0 89 -38t38 -91.5t-38 -91t-89 -37.5 h-158l-49 -232h114q51 0 88 -38t37 -91t-36.5 -91t-88.5 -38h-168l-51 -241q-10 -51 -55 -79t-96 -18t-81 54.5t-20 95.5l39 188h-243l-50 -241q-10 -51 -56 -79t-97 -18t-81 54.5t-20 95.5l41 188h-106q-51 0 -88 38t-37 91zM549 436h242l49 232h-244z" />
<glyph unicode="$" d="M109 209q0 66 47 113t112 47q45 0 127 -47q86 -49 199 -50q158 0 158 105q0 57 -99 100q-25 10 -161 56.5t-197 84.5q-180 109 -180 336q0 141 110.5 241t309.5 120v127q0 35 24.5 58.5t61.5 23.5q35 0 59.5 -23.5t24.5 -58.5v-125q127 -10 245 -55q127 -47 127 -158 q0 -68 -45 -113t-112 -45q-20 0 -38 4t-51.5 18.5t-39.5 16.5q-4 2 -34 13.5t-43.5 15.5t-41 9t-54.5 5q-147 0 -147 -74q0 -47 84 -86q29 -12 199 -68.5t243 -117.5q123 -98 123 -279q0 -168 -114.5 -278.5t-300.5 -136.5v-119q0 -35 -25 -59.5t-59 -24.5q-37 0 -61.5 24.5 t-24.5 59.5v113q-158 10 -285 61q-141 57 -141 166z" />
<glyph unicode="%" horiz-adv-x="1501" d="M51 1100q0 129 92.5 221t221.5 92q127 0 220 -92t93 -221t-93 -221.5t-220 -92.5q-129 0 -221.5 91.5t-92.5 222.5zM225 1099.5q0 -57.5 40 -97t97 -39.5q59 0 100.5 39.5t41.5 97t-41 97.5t-101 40q-57 0 -97 -40t-40 -97.5zM254 82q0 25 16 57l793 1229q29 47 84 47 q43 0 72.5 -29.5t29.5 -72.5q0 -27 -16 -56l-793 -1230q-29 -47 -84 -47q-43 0 -72.5 29.5t-29.5 72.5zM823 293q0 129 93.5 221t220.5 92q129 0 221 -91t92 -222q0 -129 -92 -221t-221 -92q-127 0 -220.5 92t-93.5 221zM997 293q0 -57 41 -97t101 -40q57 0 97 40t40 97 t-40 98t-97 41q-59 0 -100.5 -41t-41.5 -98z" />
<glyph unicode="&#x26;" horiz-adv-x="1445" d="M90 408q0 248 272 383q-66 127 -65 268q0 152 103.5 239.5t297.5 87.5q172 0 271.5 -92t99.5 -229q0 -121 -66.5 -210t-205.5 -167q51 -76 139 -164q8 78 29 113q51 78 141 78q70 0 118 -49.5t48 -116.5q0 -100 -55 -209q95 -33 120 -51q61 -49 62 -133q0 -78 -50.5 -127 t-121.5 -49q-66 0 -244 100q-164 -100 -391 -100q-238 0 -370 120.5t-132 307.5zM424 395q0 -70 48 -114.5t149 -44.5q61 -1 116 24q-121 109 -239 272q-74 -57 -74 -137zM627 1059q0 -61 32 -123q45 25 70 62.5t25 72.5q0 29 -15.5 47.5t-42.5 18.5q-70 0 -69 -78z" />
<glyph unicode="'" horiz-adv-x="425" d="M66 1280q0 57 39.5 96t107.5 39t107.5 -39t39.5 -96q0 -18 -2 -37l-26 -213q-10 -72 -35 -104.5t-84 -32.5t-84 32.5t-35 104.5l-26 213q-2 18 -2 37z" />
<glyph unicode="(" horiz-adv-x="727" d="M94 602q0 539 256 887q55 76 139 76q72 0 120 -46t48 -116q0 -57 -30 -113q-180 -342 -181 -688q0 -375 181 -690q31 -53 30 -113q0 -70 -48 -115.5t-120 -45.5q-84 0 -139 75q-256 352 -256 889z" />
<glyph unicode=")" horiz-adv-x="727" d="M70 -201q0 59 30 113q180 315 181 690q0 346 -181 688q-31 55 -30 113q0 70 48 116t120 46q84 0 139 -76q256 -348 256 -887q0 -537 -256 -889q-55 -75 -139 -75q-72 0 -120 46t-48 115z" />
<glyph unicode="*" horiz-adv-x="888" d="M113 1231q12 43 46 57.5t72 1.5q27 -8 66 -26l86 -39l-12 96q-6 49 -6 70q0 39 24.5 66.5t69.5 27.5t69.5 -27.5t24.5 -66.5q0 -20 -6 -70l-12 -96l86 39q39 18 65 26q39 12 73 -2t46 -57q14 -43 -4.5 -75t-55.5 -44q-14 -4 -43 -10l-26 -6l-94 -17l67 -69q33 -33 47 -52 q23 -29 20 -67.5t-38 -65.5q-74 -55 -133 19q-14 18 -37 59l-49 86l-49 -86q-23 -41 -37 -59q-25 -31 -58.5 -38t-74.5 19q-72 57 -19 133q14 18 47 52l68 69l-94 17q-2 0 -29 6t-41 10q-37 12 -55.5 44t-3.5 75z" />
<glyph unicode="+" horiz-adv-x="1196" d="M72 723q0 61 45 108.5t106 47.5h219v219q0 63 45 107t111 44q63 0 109.5 -44t46.5 -107v-219h221q61 0 105 -47.5t44 -108.5q0 -63 -44 -109.5t-105 -46.5h-221v-221q0 -61 -46 -105t-109.5 -44t-110 44t-46.5 105v221h-219q-63 0 -107 45t-44 111z" />
<glyph unicode="," horiz-adv-x="636" d="M94 185q0 78 52.5 133t150.5 55q111 0 174.5 -73.5t63.5 -198.5q0 -92 -42 -175t-102.5 -134.5t-122 -81t-104.5 -29.5q-27 0 -44 17t-17 42q0 39 71.5 94.5t71.5 110.5q0 31 -23.5 54.5t-52 38t-52.5 52t-24 95.5z" />
<glyph unicode="-" horiz-adv-x="1089" d="M174 565q0 61 45 108.5t107 47.5h440q61 0 105 -47t44 -109q0 -63 -44 -109t-105 -46h-440q-63 0 -107.5 45t-44.5 110z" />
<glyph unicode="." horiz-adv-x="589" d="M94 176q0 82 57.5 139.5t139.5 57.5t139 -57.5t57 -139.5t-57 -139t-139 -57t-139.5 57t-57.5 139z" />
<glyph unicode="/" horiz-adv-x="876" d="M-10 139q-1 50 26 101l551 1079q53 102 160 102q68 0 119 -49t51 -112q0 -49 -27 -101l-551 -1079q-53 -102 -159 -103q-68 0 -119 49.5t-51 112.5z" />
<glyph unicode="0" d="M80 696q0 354 137 536.5t397 182.5t397.5 -182.5t137.5 -536.5q0 -352 -137.5 -534t-397.5 -182t-397 182t-137 534zM434 696q0 -207 51 -303q43 -84 129 -84t129 84q48 94 48 303t-48 303q-43 86 -129 86q-82 0 -127 -86q-53 -100 -53 -303z" />
<glyph unicode="1" d="M109 1128q0 51 28.5 92.5t73.5 55.5l369 119q55 18 110 18q78 0 117 -49t39 -125v-928h198q61 0 105.5 -47t44.5 -108q0 -66 -43 -111t-107 -45h-780q-63 0 -107 45t-44 111q0 61 45 108t106 47h221v725l-176 -57q-23 -6 -45 -6q-63 0 -109 41t-46 114z" />
<glyph unicode="2" d="M119 162q0 152 38 256t126 188q76 74 226 151t198 122q49 49 49 116q0 55 -37 88q-35 31 -109 31q-76 0 -151 -45q-12 -8 -40 -24.5t-42 -24.5t-39 -16.5t-47 -8.5q-68 0 -112 42t-44 114q0 119 178 199q139 63 328 63q221 0 350 -139q102 -109 103 -268 q0 -186 -129 -316q-76 -76 -216.5 -148.5t-179.5 -103.5q-63 -49 -63 -127h453q63 0 107 -46t44 -109q0 -66 -44 -111t-107 -45h-691q-66 0 -107.5 43t-41.5 119z" />
<glyph unicode="3" d="M141 188q0 63 45.5 108.5t108.5 45.5q27 0 47.5 -7t48 -24.5t35.5 -21.5q57 -29 117 -29q170 0 170 146q0 88 -76 133q-51 29 -166 28q-68 0 -117 33t-49 109q0 55 37 96t102 41q100 0 158 28q70 37 70 123q0 47 -29 82t-86 35q-63 0 -125 -39q-78 -43 -119 -43 q-63 0 -108 44t-45 108q0 47 26.5 85t54 55t74.5 38q119 51 267 51q197 0 305 -105.5t108 -260.5q0 -225 -190 -318q244 -100 244 -356q0 -174 -126 -283.5t-354 -109.5q-150 0 -249 30q-178 53 -179 178z" />
<glyph unicode="4" d="M16 389q0 53 33 98l588 807q86 119 188 119q70 0 114 -47t44 -121v-708h86q57 0 99 -44t42 -104q0 -61 -41 -104t-100 -43h-86v-95q0 -70 -51 -118.5t-121 -48.5q-72 0 -123 49t-51 118v95h-479q-59 0 -100.5 43t-41.5 104zM451 537h186v258z" />
<glyph unicode="5" d="M133 193q0 61 45 105t109 44q47 0 116.5 -41t163.5 -41q82 0 131.5 50t49.5 153q0 199 -170 199q-63 0 -144 -72q-78 -70 -137 -70q-63 0 -100 38t-37 95q0 25 4 103l31 489q4 63 47 106.5t102 43.5h557q63 0 106.5 -46t43.5 -110q0 -66 -42 -111t-108 -45h-397l-12 -161 q49 20 137 20q236 0 351.5 -125t115.5 -350t-142.5 -356t-386.5 -131q-205 0 -319 57q-115 56 -115 156z" />
<glyph unicode="6" d="M94 645q0 98 12.5 190.5t51.5 202t101.5 188.5t175 133t261.5 54q188 0 297 -53q121 -55 121 -166q0 -66 -47 -112t-115 -46q-43 0 -121 39q-66 35 -141 35q-109 0 -176 -96q-45 -61 -53 -146q102 45 221 45q86 0 164 -24.5t144.5 -75.5t105.5 -142t39 -214 q0 -217 -144.5 -347t-361.5 -130q-102 0 -187.5 26.5t-168.5 94t-131 205.5t-48 339zM444 559q2 -96 22.5 -158.5t55.5 -86t56.5 -29.5t50.5 -6q70 0 114.5 49t44.5 118q0 170 -149 170q-101 0 -195 -57z" />
<glyph unicode="7" d="M98 1006v237q0 63 45 107.5t111 44.5h723q61 0 106.5 -47t45.5 -109q0 -45 -25 -100l-473 -1057q-29 -66 -100.5 -91.5t-137.5 5.5q-72 33 -97.5 100.5t7.5 132.5l281 580q47 100 155 274h-329v-77q0 -61 -47 -105.5t-109 -44.5q-66 0 -111 43t-45 107z" />
<glyph unicode="8" d="M80 371q0 231 244 364q-59 47 -91 78t-64 96.5t-32 145.5q0 152 130 256t345 104q217 0 348.5 -104.5t131.5 -255.5q0 -86 -31 -153.5t-59.5 -96.5t-81.5 -70q80 -57 120.5 -96t74.5 -106.5t34 -155.5q0 -174 -142.5 -285.5t-392.5 -111.5q-246 0 -390 108.5t-144 282.5z M434 403q0 -55 40 -100t140 -45q102 0 145.5 43t43.5 102q0 47 -48 89.5t-153 87.5q-168 -72 -168 -177zM483 1055q0 -90 156 -168q109 65 109 155q0 47 -34 78t-93 31q-137 0 -138 -96z" />
<glyph unicode="9" d="M92 934q0 217 145.5 347t362.5 130q102 0 187 -26.5t168 -94t131.5 -206t48.5 -339.5q0 -98 -12.5 -190t-51.5 -200.5t-102.5 -188.5t-176 -134.5t-260.5 -54.5q-190 0 -299 54q-119 55 -118 166q0 68 47 113.5t114 45.5q43 0 121 -39q66 -35 142 -34q104 0 174 94 q43 57 55 147q-102 -45 -221 -45q-86 0 -164 24.5t-145.5 75t-106.5 141.5t-39 214zM440 944q0 -170 150 -170q100 0 194 57q-2 96 -22.5 159t-55 86.5t-56 29.5t-50.5 6q-70 0 -115 -49t-45 -119z" />
<glyph unicode=":" horiz-adv-x="606" d="M106 176q0 82 57.5 139.5t139.5 57.5t139 -57.5t57 -139.5t-57 -139t-139 -57t-139.5 57t-57.5 139zM106 766q0 82 57.5 139.5t139.5 57.5t139 -57.5t57 -139.5t-57 -139t-139 -57t-139.5 57t-57.5 139z" />
<glyph unicode=";" horiz-adv-x="606" d="M106 185q0 78 52.5 133t150.5 55q111 0 174.5 -73.5t63.5 -198.5q0 -92 -42 -175t-102.5 -134.5t-122 -81t-104.5 -29.5q-27 0 -44 17t-17 42q0 39 71.5 94.5t71.5 110.5q0 31 -23.5 54.5t-52 38t-52.5 52t-24 95.5zM125 766q0 82 57.5 139.5t139.5 57.5t139 -57.5 t57 -139.5t-57 -139t-139 -57t-139.5 57t-57.5 139z" />
<glyph unicode="&#x3c;" horiz-adv-x="1306" d="M72 723q0 194 211 270l678 246q47 18 79 18q72 0 121 -51t49 -127q0 -55 -29.5 -99t-78.5 -58l-631 -199l631 -199q49 -14 78.5 -59t29.5 -100q0 -76 -51 -127.5t-121 -51.5q-31 0 -77 19l-678 246q-211 76 -211 272z" />
<glyph unicode="=" horiz-adv-x="1198" d="M72 487q0 61 45 108.5t106 47.5h754q61 0 105 -47t44 -109q0 -63 -44 -109t-105 -46h-754q-63 0 -107 45t-44 110zM72 954q0 61 45 108.5t106 47.5h754q61 0 105 -47t44 -109q0 -63 -44 -109t-105 -46h-754q-63 0 -107 45t-44 110z" />
<glyph unicode="&#x3e;" horiz-adv-x="1314" d="M96 365q0 55 30 100t79 59l631 199l-631 199q-49 14 -79 58t-30 99q0 76 49.5 127t120.5 51q33 0 80 -18l678 -246q211 -76 211 -270q0 -197 -211 -272l-678 -246q-47 -18 -78 -19q-70 0 -121 51.5t-51 127.5z" />
<glyph unicode="?" horiz-adv-x="1101" d="M76 1128q0 59 31.5 99.5t99.5 83.5q162 104 362 104q197 0 326 -113.5t129 -281.5q0 -106 -47 -183t-160 -153q-100 -66 -129 -135q-49 -115 -158 -115q-63 0 -107 48t-44 118q0 80 84 174q27 29 172 152q53 45 53 94q0 43 -38 71.5t-105 28.5q-78 0 -156 -47 q-20 -12 -51 -38.5t-58.5 -41t-62.5 -14.5q-57 0 -99 44t-42 105zM340 176q0 82 57.5 139.5t139 57.5t139 -57.5t57.5 -139.5t-57.5 -139t-139 -57t-139 57t-57.5 139z" />
<glyph unicode="@" horiz-adv-x="1642" d="M92 694q0 297 226.5 509t543.5 212q291 0 489.5 -167t198.5 -443q0 -213 -107.5 -368.5t-281.5 -155.5q-104 0 -131 79q-78 -86 -223 -86q-106 0 -191 52q-111 70 -110 200q0 168 215 234q102 31 280 41q0 70 -38 112q-45 45 -121 45q-72 0 -140 -40q-8 -4 -19 -12.5 t-18.5 -12.5t-18.5 -7t-25 -3q-33 0 -55.5 22.5t-22.5 55.5q0 47 69 90q104 61 230 61q135 0 225 -78q100 -86 100 -252v-319q0 -43 33 -43q70 0 139.5 92t69.5 285q0 223 -155.5 352t-389.5 129q-258 0 -444.5 -173t-186.5 -417q0 -264 181.5 -426t455.5 -162q231 0 424 76 q66 27 74 27q31 0 51.5 -19.5t20.5 -50.5q0 -57 -97 -92q-213 -80 -473 -80q-340 0 -559 203t-219 530zM670 518q0 -47 36.5 -77.5t104.5 -30.5q134 0 193 102v154q-188 -10 -263 -50q-72 -35 -71 -98z" />
<glyph unicode="A" horiz-adv-x="1263" d="M20 145q0 35 17 76l344 1006q63 188 254 188q195 0 258 -188l336 -1006q14 -43 14 -76q0 -76 -51 -120.5t-131 -44.5h-2q-135 0 -170 118l-45 154h-428l-47 -154q-37 -118 -174 -118h-2q-78 0 -125.5 48t-47.5 117zM504 541h254l-125 424z" />
<glyph unicode="B" horiz-adv-x="1253" d="M131 174v1047q0 72 52.5 123t127.5 51h324q168 0 297 -93.5t129 -261.5q0 -215 -170 -295v-4q285 -71 285 -360q0 -182 -140.5 -281.5t-328.5 -99.5h-396q-76 0 -128 51t-52 123zM492 293h133q84 0 131 27.5t51 107.5q0 137 -211 137h-104v-272zM492 854h61 q145 0 145 137q0 53 -35.5 83t-93.5 30h-77v-250z" />
<glyph unicode="C" horiz-adv-x="1335" d="M76 698q0 305 224 510t534 205q172 0 305 -45q131 -45 131 -160q0 -72 -49.5 -120t-118.5 -48q-18 0 -39 5.5t-48.5 14.5t-47.5 13q-59 16 -142 17q-156 0 -264 -111t-108 -281t105.5 -280.5t266.5 -110.5q78 0 148 19q23 6 56.5 16t56 15t40.5 5q70 0 119 -48t49 -119 q0 -111 -135 -162q-150 -53 -330 -53q-334 0 -543.5 195.5t-209.5 522.5z" />
<glyph unicode="D" horiz-adv-x="1523" d="M131 174v1047q0 72 52.5 123t127.5 51h394q176 0 315 -44t256 -165q172 -179 172 -488q0 -311 -172 -489q-201 -209 -598 -209h-367q-76 0 -128 51t-52 123zM492 303h161q254 0 357 139q69 93 69 251q0 193 -96 290q-106 109 -330 109h-161v-789z" />
<glyph unicode="E" horiz-adv-x="1308" d="M131 174v1047q0 72 52.5 123t127.5 51h785q63 0 108 -47.5t45 -113t-45 -112.5t-108 -47h-604v-213h495q63 0 108.5 -47t45.5 -112.5t-45 -112.5t-109 -47h-495v-224h604q63 0 108 -47t45 -112.5t-45 -112.5t-108 -47h-785q-76 0 -128 51t-52 123z" />
<glyph unicode="F" horiz-adv-x="1202" d="M131 154v1067q0 72 53 123t127 51h723q63 0 109.5 -47.5t46.5 -113t-46 -112.5t-110 -47h-542v-213h454q63 0 109.5 -47t46.5 -112.5t-46 -112.5t-110 -47h-454v-389q0 -72 -53.5 -123t-127 -51t-127 51t-53.5 123z" />
<glyph unicode="G" horiz-adv-x="1544" d="M76 698q0 305 220 510t538 205q164 0 303 -43q59 -18 96 -60t37 -102q0 -72 -49.5 -120t-118.5 -48q-20 0 -139 31q-59 16 -140 16q-158 0 -265 -111.5t-107 -277.5q0 -172 102 -284.5t270 -112.5q127 0 238 47v117h-115q-63 0 -108 47t-45 112.5t45 112.5t108 47h307 q78 0 120 -48t42 -126v-456q0 -74 -48 -124t-128 -50q-96 0 -143 63q-143 -63 -297 -63q-324 0 -523.5 188t-199.5 530z" />
<glyph unicode="H" horiz-adv-x="1515" d="M131 154v1085q0 72 53.5 123t126.5 51q76 0 128.5 -51t52.5 -123v-377h532v377q0 72 53 123t127 51q76 0 128 -51t52 -123v-1085q0 -72 -53 -123t-127 -51t-127 51t-53 123v389h-532v-389q0 -72 -53.5 -123t-127 -51t-127 51t-53.5 123z" />
<glyph unicode="I" horiz-adv-x="622" d="M131 154v1085q0 72 53.5 123t126.5 51q76 0 128.5 -51t52.5 -123v-1085q0 -72 -53.5 -123t-127 -51t-127 51t-53.5 123z" />
<glyph unicode="J" horiz-adv-x="1112" d="M14 242q0 70 47.5 118t116.5 48q63 0 117 -48q70 -61 143 -61q82 0 123 33q61 47 62 207v700q0 72 53 123t127 51q76 0 128 -51t52 -123v-731q0 -293 -176 -426q-139 -102 -365 -102q-215 0 -356 116q-72 61 -72 146z" />
<glyph unicode="K" horiz-adv-x="1292" d="M131 154v1085q0 72 53.5 123t126.5 51q76 0 128.5 -51t52.5 -123v-344l415 465q49 53 123 53q70 0 122 -51t52 -125q0 -66 -41 -109l-321 -335l379 -535q28 -40 28 -90q0 -75 -53 -131.5t-129 -56.5q-94 0 -145 75l-324 486l-106 -111v-276q0 -72 -53.5 -123t-127 -51 t-127 51t-53.5 123z" />
<glyph unicode="L" horiz-adv-x="1120" d="M131 174v1065q0 72 52.5 123t128 51t128 -51t52.5 -123v-920h442q63 0 108 -47t45 -112.5t-45 -112.5t-108 -47h-623q-76 0 -128 51t-52 123z" />
<glyph unicode="M" horiz-adv-x="1726" d="M131 147v1045q0 94 63.5 157.5t163.5 63.5q131 0 197 -113l307 -552l309 552q66 113 197 113q100 0 163.5 -63.5t63.5 -157.5v-1045q0 -70 -48 -118.5t-126 -48.5t-126 49t-48 118v621l-207 -367q-66 -111 -175 -111h-1q-110 0 -176 111l-209 367v-621q0 -70 -49 -118.5 t-125 -48.5t-125 49t-49 118z" />
<glyph unicode="N" horiz-adv-x="1523" d="M131 141v1076q0 82 60.5 139t146.5 57q109 0 174 -90l537 -721v647q0 68 50 116t121.5 48t122 -48t50.5 -116v-1073q0 -82 -61.5 -139t-147.5 -57q-111 0 -174 88l-535 725v-652q0 -68 -50 -114.5t-122 -46.5t-122 47t-50 114z" />
<glyph unicode="O" horiz-adv-x="1660" d="M76 694q0 319 221 519t534 200q311 0 532.5 -201t221.5 -518q0 -319 -220 -516.5t-533.5 -197.5t-534.5 199.5t-221 514.5zM459 694q0 -166 104.5 -272.5t267.5 -106.5q162 0 266.5 106.5t104.5 272.5t-104.5 273.5t-266 107.5t-267 -107.5t-105.5 -273.5z" />
<glyph unicode="P" horiz-adv-x="1345" d="M131 154v1065q0 74 53 125t127 51h453q211 0 340 -109q174 -143 174 -393q0 -258 -188 -404q-125 -98 -316 -98h-282v-237q0 -72 -53.5 -123t-127 -51t-127 51t-53.5 123zM492 707h227q74 0 119 28q73 43 73 158q0 111 -71 156q-46 30 -116 30h-5h-227v-372z" />
<glyph unicode="Q" horiz-adv-x="1660" d="M76 694q0 319 221 519t534 200q311 0 532.5 -201t221.5 -518q0 -250 -139 -429t-363 -249q0 -20 23 -26q113 -33 397 -99q131 -33 131 -159q0 -74 -52 -120t-130 -46q-31 0 -70 6t-93 22.5t-97 31t-121 43t-123 46t-142 56.5t-144 57q-86 35 -87 111q0 41 25 71 q-231 68 -377.5 249t-146.5 435zM459 694q0 -166 104.5 -272.5t267.5 -106.5q162 0 266.5 106.5t104.5 272.5t-104.5 273.5t-266 107.5t-267 -107.5t-105.5 -273.5z" />
<glyph unicode="R" horiz-adv-x="1406" d="M131 154v1065q0 74 52.5 125t127.5 51h477q229 0 359 -101q162 -127 162 -366q0 -205 -154 -344q-29 -25 -55 -43l184 -293q25 -39 25 -86q0 -72 -54.5 -127t-128.5 -55q-102 0 -151 83l-236 392h-247v-301q0 -72 -53.5 -123t-127.5 -51q-76 0 -128 51t-52 123zM492 758 h268q70 0 119 30q63 43 63 136q0 90 -57 131q-47 35 -121 35h-272v-332z" />
<glyph unicode="S" horiz-adv-x="1208" d="M61 223q0 74 50.5 123t119.5 49q41 0 144 -49q115 -55 205 -55q168 0 168 110q0 49 -44.5 80t-128.5 58q-18 6 -81.5 25.5t-97.5 30.5t-84 34.5t-87 50.5q-157 118 -157 331q0 177 144 289.5t404 112.5q203 0 332 -53q148 -61 148 -178q0 -72 -48.5 -120t-121.5 -48 q-45 0 -168 51q-90 37 -162 37q-147 0 -147 -80q0 -43 41.5 -70.5t123.5 -52.5q14 -4 88 -24.5t108 -33t88 -38t93 -53.5q150 -113 150 -320t-159 -328.5t-398 -121.5q-199 0 -355 59q-168 66 -168 184z" />
<glyph unicode="T" horiz-adv-x="1261" d="M0 1234.5q0 65.5 46 113t110 47.5h950q63 0 109.5 -47.5t46.5 -113t-46.5 -112.5t-109.5 -47h-295v-921q0 -72 -53 -123t-127 -51t-127 51t-53 123v921h-295q-63 0 -109.5 47t-46.5 112.5z" />
<glyph unicode="U" horiz-adv-x="1484" d="M129 551v688q0 72 53.5 123t126.5 51q76 0 128 -51t52 -123v-651q0 -133 52 -199q65 -84 198 -84q139 0 205 84q51 66 51 199v651q0 72 52.5 123t128.5 51q74 0 127 -51t53 -123v-688q0 -231 -123 -379q-165 -192 -489 -192h-3q-324 0 -489 192q-123 147 -123 379z" />
<glyph unicode="V" horiz-adv-x="1351" d="M20 1235q0 74 54.5 126t134.5 52q59 0 105 -32.5t67 -88.5l289 -852l297 854q20 55 68 87t110 32q78 0 132 -48t54 -126q0 -31 -12 -61l-391 -1012q-31 -82 -97.5 -134t-162.5 -52q-188 0 -260 186l-377 1010q-10 31 -11 59z" />
<glyph unicode="W" horiz-adv-x="2080" d="M20 1235q0 74 54.5 126t134.5 52q139 0 174 -129l223 -844l240 838q41 135 196 135q150 0 189 -137l254 -836l211 854q14 55 64 87t114 32q78 0 132 -48t54 -126q0 -25 -14 -68l-303 -1005q-25 -84 -91.5 -135t-168.5 -51q-199 0 -260 186l-187 561l-172 -561 q-59 -186 -260 -186t-260 186l-313 1010q-10 31 -11 59z" />
<glyph unicode="X" horiz-adv-x="1345" d="M49 168q0 59 39 104l356 422l-340 424q-38 50 -38 102q0 81 62 137t146 56q105 0 156 -76l246 -352l242 352q51 76 155 76q80 0 144.5 -54t64.5 -136q0 -53 -39 -105l-334 -418l351 -428q36 -42 36 -99q0 -81 -62.5 -137t-143.5 -56q-104 0 -156 73l-256 365l-264 -365 q-52 -73 -155 -73h-3q-80 0 -143.5 53t-63.5 135z" />
<glyph unicode="Y" horiz-adv-x="1208" d="M20 1241q0 74 51.5 123t127.5 49q100 0 149 -78l252 -409l260 411q51 76 150 76q76 0 127 -49t51 -125q0 -66 -33 -113l-373 -563v-409q0 -72 -53 -123t-127 -51t-127 51t-53 123v411l-369 563q-33 53 -33 113z" />
<glyph unicode="Z" horiz-adv-x="1218" d="M37 1235q0 63 46 111.5t107 48.5h775q63 0 108 -48.5t45 -111.5q0 -47 -24 -86l-539 -830h465q63 0 109.5 -48t46.5 -111q0 -66 -46.5 -113t-109.5 -47h-795q-63 0 -109 47t-46 113q0 47 32 96l531 819h-443q-63 0 -108 47t-45 113z" />
<glyph unicode="[" horiz-adv-x="878" d="M125 -162v1510q0 70 52 120t126 50h379q61 0 104 -45.5t43 -106.5t-43 -105t-104 -44h-203v-1248h203q61 0 104 -45t43 -106q0 -63 -43 -107.5t-104 -44.5h-379q-74 0 -126 50.5t-52 121.5z" />
<glyph unicode="\" horiz-adv-x="731" d="M94 1206q-18 66 15.5 124.5t99 76.5t126 -13.5t77.5 -95.5l311 -1110q18 -63 -16.5 -122.5t-98.5 -77.5q-66 -18 -126 13.5t-79 94.5z" />
<glyph unicode="]" horiz-adv-x="878" d="M49 -182q0 61 43 106t105 45h202v1248h-202q-61 0 -104.5 44t-43.5 105t43.5 106.5t104.5 45.5h378q74 0 126.5 -50.5t52.5 -119.5v-1510q0 -72 -52.5 -122t-126.5 -50h-378q-61 0 -104.5 44t-43.5 108z" />
<glyph unicode="^" horiz-adv-x="1091" d="M92 905q0 43 25 80l282 426q56 84 146 84q92 0 147 -84l283 -426q25 -37 24 -80q0 -57 -43 -99t-100 -42q-76 0 -117 63l-194 297l-193 -297q-41 -63 -116 -63q-57 0 -100.5 42t-43.5 99z" />
<glyph unicode="_" horiz-adv-x="913" d="M-121 -213q0 49 36 86t85 37h913q49 0 84 -37t35 -86q0 -51 -34.5 -87t-84.5 -36h-913q-51 0 -86 36t-35 87z" />
<glyph unicode="`" horiz-adv-x="1003" d="M326 1468q0 49 38.5 85t90.5 36q78 0 114 -80l86 -182q21 -41 21 -74q0 -43 -33 -73.5t-78 -30.5q-68 0 -104 68l-105 167q-31 51 -30 84z" />
<glyph unicode="a" horiz-adv-x="1009" d="M61 276q0 158 162 236q119 55 346 78v14q0 53 -18 78q-23 31 -82 31q-63 0 -145 -35q-68 -27 -101 -27q-49 0 -84 35t-35 84q0 92 132 143q125 49 272 50q209 0 309 -109q84 -90 84 -248v-467q0 -66 -49 -112.5t-117 -46.5q-86 0 -135 65q-97 -65 -236 -65h-4 q-131 0 -215 82.5t-84 213.5zM377 287q0 -74 92 -74q53 0 100 31v135q-82 -4 -118 -17q-74 -23 -74 -75z" />
<glyph unicode="b" horiz-adv-x="1150" d="M125 182v1067q0 68 48 115t118 47q68 0 117 -47t49 -115v-303q74 16 170 17q201 0 329 -136q125 -135 125 -356q0 -199 -116 -328q-149 -163 -463 -163h-4q-141 0 -228 18q-145 35 -145 184zM457 254h30q31 -2 41 -2q117 0 174 78q41 57 41 141q0 94 -51 152 q-53 59 -137 59q-43 0 -98 -10v-418z" />
<glyph unicode="c" horiz-adv-x="991" d="M170 772q152 190 442 191q117 0 215 -43q125 -56 125 -154q0 -55 -40 -94t-95 -39q-25 0 -100 26q-59 25 -103 25q-92 0 -149 -57q-57 -61 -57 -154q0 -98 53 -158q55 -61 153 -61q49 0 109 18q10 4 31.5 13.5t36 12.5t34.5 3q55 0 93 -40t38 -95q0 -106 -168 -160 q-83 -26 -177 -26h-7q-270 0 -414 155q-120 130 -120 335q0 179 100 302z" />
<glyph unicode="d" horiz-adv-x="1146" d="M178 801q135 164 406 164q63 0 106 -9v295q0 68 48 115t118 47t118 -47t48 -115v-1073q0 -86 -54 -132t-134 -46h-205q-254 0 -402 115q-157 124 -157 347q0 208 108 339zM410 471q0 -104 69 -154q60 -41 187 -41h24v400q-29 4 -86 4q-98 0 -151 -70q-43 -55 -43 -139z " />
<glyph unicode="e" horiz-adv-x="1075" d="M70 483q0 209 143 353q131 127 346 127q217 0 340 -123q119 -119 119 -289q0 -78 -42 -122t-118 -44h-440q14 -66 55 -102q51 -47 139 -47q66 0 121 18q16 6 42 16.5t44.5 16.5t36.5 6q53 0 88 -38t35 -93q0 -96 -135 -146q-99 -36 -246 -36h-8q-238 0 -375 131 q-145 135 -145 372zM418 584h278q-6 53 -32 84q-35 41 -103 41q-70 0 -104 -37q-29 -33 -39 -88z" />
<glyph unicode="f" horiz-adv-x="819" d="M-10 815q0 51 38 90t89 39h53v90q0 74 16.5 136.5t52 119t104.5 89t165 32.5q121 0 215 -35q137 -51 137 -153q0 -51 -37 -88t-88 -37q-20 0 -82 20q-39 14 -71 15q-80 0 -80 -123v-66h135q51 0 88 -39t37 -90q0 -55 -36 -93t-89 -38h-135v-545q0 -66 -49.5 -112.5 t-117 -46.5t-116.5 47t-49 112v545h-53q-53 0 -90 38t-37 93z" />
<glyph unicode="g" horiz-adv-x="1189" d="M70 475q0 221 133 361q123 127 327 127q115 0 230 -72q51 72 139 72q70 0 118 -47.5t48 -112.5v-832q0 -246 -152 -366q-123 -98 -329 -99q-141 0 -252 35q-174 55 -174 174q0 59 40 102.5t99 43.5q33 0 52.5 -6.5t53 -24.5t48.5 -27q57 -28 122 -28h5q78 0 116.5 39 t38.5 98v106q-95 -34 -195 -34h-6q-193 0 -315 116q-147 137 -147 375zM408 475q0 -123 53 -176q40 -41 110 -41q84 0 162 39v334q-90 59 -153 59q-74 0 -117 -43q-55 -57 -55 -172z" />
<glyph unicode="h" horiz-adv-x="1204" d="M125 139v1110q0 68 49 115t117 47q70 0 118 -47t48 -115v-375q47 39 102 60q70 29 152 29q176 0 278 -95q106 -100 107 -288v-441q0 -66 -49.5 -112.5t-116.5 -46.5q-70 0 -118 47t-48 112v369q0 104 -33 145q-33 39 -94 39q-96 0 -141 -76q-39 -63 -39 -165v-312 q0 -66 -49.5 -112.5t-117 -46.5t-116.5 46.5t-49 112.5z" />
<glyph unicode="i" horiz-adv-x="581" d="M102 1345.5q0 77.5 55.5 133t133.5 55.5t133 -55.5t55 -133t-55 -133t-133 -55.5t-133.5 55.5t-55.5 133zM125 139v664q0 66 48 113t117.5 47t118 -47.5t48.5 -112.5v-664q0 -66 -49.5 -112.5t-116.5 -46.5q-70 0 -118 47t-48 112z" />
<glyph unicode="j" horiz-adv-x="581" d="M-57 -358q0 45 17 70.5t55 59t65 74.5q45 70 45 271v688q0 66 48 113t118 47q68 0 117 -47.5t49 -112.5v-742q0 -285 -113 -438q-86 -119 -227 -119q-76 0 -125 35t-49 101zM102 1345.5q0 77.5 55.5 133t133.5 55.5t133 -55.5t55 -133t-55 -133t-133 -55.5t-133.5 55.5 t-55.5 133z" />
<glyph unicode="k" horiz-adv-x="1062" d="M125 139v1110q0 68 48 115t117.5 47t118 -47t48.5 -115v-616l301 291q41 39 100 39q66 0 110 -47.5t44 -106.5q0 -63 -43 -104l-181 -158l228 -324q24 -36 24 -79q0 -71 -49 -117.5t-114 -46.5q-84 0 -129 69l-191 293l-100 -88v-115q0 -66 -49.5 -112.5t-116.5 -46.5 q-70 0 -118 47t-48 112z" />
<glyph unicode="l" horiz-adv-x="581" d="M125 139v1110q0 68 49 115t117 47q70 0 118 -47t48 -115v-1110q0 -66 -49.5 -112.5t-117 -46.5t-116.5 46.5t-49 112.5z" />
<glyph unicode="m" horiz-adv-x="1732" d="M125 139v660q0 68 48 115t118 47q94 0 143 -80q35 29 68 43q78 37 164 37q88 0 161 -27q76 -29 123 -80q61 49 127 76q78 31 172 31q170 0 271 -95q104 -94 104 -288v-441q0 -66 -49 -113t-117 -47q-70 0 -118 47.5t-48 112.5v367q0 100 -28 143q-29 45 -95 45 q-68 0 -100 -63q-29 -59 -29 -183v-309q0 -66 -49 -113t-117 -47q-70 0 -117.5 47.5t-47.5 112.5v367q0 100 -29 143q-29 45 -94 45q-70 0 -101 -63q-28 -55 -28 -146v-6v-338q0 -68 -49.5 -115t-116.5 -47q-70 0 -118 47.5t-48 114.5z" />
<glyph unicode="n" horiz-adv-x="1202" d="M125 139v664q0 66 48 113t118 47q51 0 93 -29t60 -74q39 39 97 66q78 37 168 37q176 0 278 -95q106 -100 107 -288v-441q0 -66 -49.5 -112.5t-116.5 -46.5q-70 0 -118 46.5t-48 112.5v367q0 106 -31 145q-33 39 -96 39q-94 0 -139 -76q-39 -59 -39 -165v-310 q0 -66 -49.5 -112.5t-116.5 -46.5q-70 0 -118 47t-48 112z" />
<glyph unicode="o" horiz-adv-x="1171" d="M70 471.5q0 233.5 161 368.5q141 123 354.5 123t354.5 -123q162 -135 162 -368.5t-162 -369.5q-140 -123 -352 -123q-1 1 -2 1q-213 0 -355 122q-161 136 -161 369.5zM397 471q0 -102 60 -168q51 -55 129 -55t129 55q59 66 59 168t-59 168q-51 55 -129 55t-129 -55 q-60 -66 -60 -168z" />
<glyph unicode="p" horiz-adv-x="1148" d="M125 -340v1065q0 106 49.5 155.5t149.5 67.5q78 14 194 15q289 0 436 -154q125 -129 125 -340q0 -205 -108 -330q-138 -159 -405 -159h-3q-74 0 -106 4v-324q0 -66 -49.5 -113t-117 -47t-116.5 47t-49 113zM457 256q27 -6 71 -6q104 0 158 43q63 51 64 176q0 100 -48 160 q-52 65 -146 65h-3q-53 0 -96 -6v-432z" />
<glyph unicode="q" horiz-adv-x="1146" d="M70 461q0 211 123 340q154 162 438 162q152 0 219 -17q86 -18 129 -70.5t43 -150.5v-1065q0 -66 -48 -113t-118 -47q-68 0 -117 47t-49 113v371q-14 -14 -45 -27q-57 -24 -135 -24h-6q-184 0 -303 116q-131 127 -131 365zM397 469q0 -100 39 -158q43 -61 121 -61 q70 0 102 47q31 43 31 141v250q-39 6 -88 6q-109 0 -164 -78q-41 -57 -41 -147z" />
<glyph unicode="r" horiz-adv-x="921" d="M125 139v664q0 66 48 113t118 47q53 0 95 -30t60 -75h7q27 33 71 64q66 41 144 41q94 0 161 -37q92 -49 93 -144q0 -66 -41 -108.5t-103 -42.5q-49 0 -90 28q-41 27 -82 27q-68 0 -104 -49q-45 -59 -45 -193v-305q0 -66 -49.5 -112.5t-116.5 -46.5q-70 0 -118 47t-48 112 z" />
<glyph unicode="s" horiz-adv-x="864" d="M45 160q0 53 38 91t91 38q39 0 117 -39q49 -27 100 -27q78 0 78 51q0 35 -59 64q-27 12 -88.5 33.5t-96.5 38.5q-157 78 -157 258q0 139 99 218t284 79q143 0 225 -27q125 -43 125 -141q0 -53 -37 -91t-90 -38q-51 0 -109 20q-53 20 -84 21q-63 0 -63 -39 q0 -18 16.5 -31.5t54.5 -30.5q6 -2 73 -26.5t108 -44.5q149 -75 149 -240q0 -137 -112.5 -227t-298.5 -90q-158 0 -246 32q-117 43 -117 148z" />
<glyph unicode="t" horiz-adv-x="847" d="M-4 815q0 53 37 91t90 38h53v131q0 68 48 115t118 47q68 0 117 -47t49 -115v-131h133q53 0 90 -38t37 -91t-38 -92t-89 -39h-133v-340q0 -88 57 -88q27 0 84 37q34 24 77 24h3q55 0 90 -37.5t35 -93.5q0 -104 -143 -166q-96 -40 -206 -40h-5q-162 0 -243 95t-81 240v369 h-53q-53 0 -90 39t-37 92z" />
<glyph unicode="u" horiz-adv-x="1183" d="M109 412v391q0 66 48 113t117.5 47t117.5 -47.5t48 -112.5v-381q0 -59 21 -100q37 -72 131 -72t131 72q20 41 20 100v381q0 66 48.5 113t118 47t117.5 -47.5t48 -112.5v-391q0 -178 -90 -285q-123 -147 -393 -147t-393 147q-90 107 -90 285z" />
<glyph unicode="v" horiz-adv-x="999" d="M20 803q0 70 48.5 115t134.5 45q114 -1 153 -134l144 -497h10l143 510q14 53 55.5 87t104.5 34q78 0 122 -42t44 -110q0 -47 -35 -135l-188 -488q-80 -208 -265 -208h-2q-104 0 -164.5 51t-97.5 157l-176 490q-31 84 -31 125z" />
<glyph unicode="w" horiz-adv-x="1398" d="M20 801q0 80 52.5 121t122.5 41q123 0 157 -172l86 -414l92 424q8 33 17.5 57.5t29 50t53.5 40t81 14.5t79.5 -15.5t51 -43t28 -50t15.5 -53.5l94 -424l88 432q16 76 50 115t110 39q68 0 109.5 -38t41.5 -110q0 -43 -14 -98l-152 -543q-12 -45 -22 -68.5t-35 -58.5 t-69 -51t-107 -16q-117 0 -164 50t-65 140l-52 242l-53 -242q-16 -82 -71.5 -136t-151.5 -54q-106 0 -157.5 47t-80.5 147l-151 543q-12 45 -13 84z" />
<glyph unicode="x" horiz-adv-x="1007" d="M27 145q0 33 16 65t23.5 40t44.5 45l170 188l-177 197q-57 57 -57 119q0 70 50 118t126 48q96 0 166 -91l113 -155l114 151q74 94 164 95q72 0 121 -46.5t49 -111.5q0 -63 -49 -109l-184 -192l209 -236q55 -66 55 -123q0 -70 -50 -118.5t-128 -48.5q-66 0 -106 28.5 t-79 79.5l-116 156l-129 -176q-68 -88 -168 -88q-76 0 -127 48t-51 117z" />
<glyph unicode="y" horiz-adv-x="1073" d="M20 780q0 76 53.5 130.5t131.5 54.5q70 0 112.5 -37t61.5 -82l184 -486l129 453q45 152 180 152q76 0 128.5 -52.5t52.5 -128.5q0 -37 -31 -118l-264 -719q-84 -225 -235.5 -327.5t-311.5 -102.5q-66 0 -112 46t-46 111.5t46 111.5t112 46q137 0 190 98l-342 729 q-39 88 -39 121z" />
<glyph unicode="z" horiz-adv-x="917" d="M10 803q0 57 42 100t100 43h583q59 0 99 -37t40 -92q0 -63 -53 -131l-329 -395h262q57 0 98 -44t41 -102q0 -59 -41 -102t-98 -43h-584q-63 0 -102 36t-39 95q0 66 55 131l330 395h-262q-59 0 -100.5 42t-41.5 104z" />
<glyph unicode="{" horiz-adv-x="913" d="M49 653.5q0 151.5 92 151.5h13q141 0 141 246q0 12 -3 77.5t-3 100.5q0 66 15 123t58.5 121.5t139.5 102.5t237 38q57 0 91 -36t34 -89q0 -51 -33.5 -84t-91.5 -41q-72 -10 -106.5 -54t-34.5 -139v-72.5t1 -46t1 -25.5v-15q0 -154 -53 -224.5t-187 -134.5 q133 -63 186.5 -133.5t53.5 -224.5v-15.5t-1 -25.5t-1 -46v-73q0 -94 35 -138t106 -54q57 -8 91 -41t34 -84q0 -53 -33.5 -89t-91.5 -36q-141 0 -237 38t-139.5 102.5t-58.5 121.5t-15 123q0 35 3 100.5t3 77.5q0 246 -141 246h-13q-92 0 -92 151.5z" />
<glyph unicode="|" horiz-adv-x="595" d="M135 -305v1558q0 66 48 113t118 47q68 0 117 -47t49 -113v-1558q0 -68 -49 -115t-117 -47q-70 0 -119 47t-47 115z" />
<glyph unicode="}" horiz-adv-x="913" d="M49 -182q0 51 34 83.5t91 41.5q72 10 106.5 54t34.5 138v73t-1 46t-1 25.5v15.5q0 154 53.5 224.5t186.5 133.5q-133 63 -186.5 134t-53.5 225v15t1 25.5t1 46v72.5q0 94 -34.5 138.5t-106.5 54.5q-57 8 -91 41t-34 84q0 53 34 89t91 36q141 0 237.5 -38t139.5 -102.5 t58.5 -122t15.5 -122.5q0 -35 -3.5 -100.5t-3.5 -77.5q0 -246 142 -246h12q92 0 92 -151.5t-92 -151.5h-12q-141 0 -142 -246q0 -12 3.5 -77.5t3.5 -100.5q0 -66 -15.5 -123t-58.5 -121.5t-139.5 -102.5t-237.5 -38q-57 0 -91 35.5t-34 89.5z" />
<glyph unicode="~" horiz-adv-x="1368" d="M111 537q0 135 102 229t229 94q78 0 146.5 -28.5t108.5 -62.5t88.5 -62.5t88.5 -28.5q37 0 64 24.5t40 55t46 55.5t84 25q70 0 108.5 -46t38.5 -120q0 -129 -99 -224.5t-232 -95.5q-80 0 -148.5 28t-107.5 61.5t-87.5 61t-88.5 27.5q-39 0 -65 -24.5t-39 -55t-47 -55 t-83 -24.5q-70 0 -108.5 47t-38.5 119z" />
<glyph unicode="&#xa0;" />
<glyph unicode="&#xa1;" horiz-adv-x="743" d="M152 -180q0 90 34 219l78 303q8 35 17.5 54.5t33 37t60.5 17.5t60.5 -18.5t30.5 -37t17 -53.5l80 -303q35 -129 35 -219q0 -291 -223 -291t-223 291zM178 766q0 82 57.5 139.5t139.5 57.5t139 -57.5t57 -139.5t-57 -139.5t-139 -57.5q-84 0 -140.5 57.5t-56.5 139.5z" />
<glyph unicode="&#xa2;" d="M172 475q0 184 113 313q122 139 327 170v129q0 33 26 57.5t60.5 24.5t59 -23.5t24.5 -58.5v-126q76 -12 148 -43q125 -59 125 -150q0 -55 -40 -95t-95 -40q-25 0 -101 29q-59 25 -104 24q-100 0 -158 -68q-47 -57 -47 -143q0 -96 55 -158q57 -61 150 -61q51 0 110 18 q10 4 32 13.5t36 12.5t35 3q55 0 92 -40t37 -95q0 -57 -41 -94t-125 -64q-55 -18 -109 -24v-127q0 -33 -24.5 -57.5t-59 -24.5t-60.5 24.5t-26 57.5v127q-176 25 -286 123q-154 137 -154 366z" />
<glyph unicode="&#xa3;" d="M80 156q0 63 44 109t107 46h48q68 59 69 191h-86q-57 0 -98 42t-41 101q0 57 41 100t98 43h21q-29 104 -29 197q0 184 123 306t362 122q143 0 250 -35q123 -37 123 -143q0 -63 -40 -106.5t-97 -43.5q-31 0 -105 21q-49 14 -98 14q-176 0 -176 -147q0 -84 29 -185h215 q57 0 98 -43t41 -100q0 -59 -41 -101t-98 -42h-156q-3 -111 -66 -191h379q63 0 107.5 -46t44.5 -109q0 -66 -44 -111t-108 -45h-766q-63 0 -107 45t-44 111z" />
<glyph unicode="&#xa4;" horiz-adv-x="1447" d="M103.5 320.5q-1.5 58.5 39.5 99.5l119 119q-66 115 -65.5 256t67.5 260l-121 123q-41 39 -39 97t46 103q39 41 98 42t98 -40l121 -123q123 68 260 68q135 0 256 -65l119 118q39 41 97 39t104 -45q41 -39 42 -98.5t-40 -97.5l-117 -117q70 -121 69 -264q0 -137 -67 -260 l115 -113q41 -41 39.5 -98.5t-41.5 -98.5q-43 -45 -100.5 -46t-100.5 40l-115 113q-119 -68 -260 -68q-143 0 -264 70l-117 -117q-41 -41 -98.5 -40t-97.5 42q-45 43 -46.5 101.5zM416 795q0 -129 91 -220.5t220 -91.5q127 0 218 91.5t91 220.5q0 127 -91 218t-218 91 q-129 0 -220 -91t-91 -218z" />
<glyph unicode="&#xa5;" d="M31 1237q0 74 51 123t127 49q100 0 149 -78l252 -409l260 411q51 76 150 76q76 0 127 -49t51 -125q0 -66 -33 -113l-219 -329h84q47 0 81 -36t34 -83q0 -49 -34 -83t-81 -34h-237v-123h237q47 0 81 -36t34 -83q0 -49 -34 -83.5t-81 -34.5h-237v-45q0 -74 -53.5 -125.5 t-127.5 -51.5q-76 0 -128 51.5t-52 125.5v45h-239q-47 0 -81 34.5t-34 83.5q0 47 33.5 83t81.5 36h239v123h-239q-47 0 -81 34t-34 83q0 47 33.5 83t81.5 36h88l-218 331q-33 53 -32 113z" />
<glyph unicode="&#xa6;" horiz-adv-x="593" d="M131 215q0 66 48 113t118 47q68 0 117 -47t49 -113v-520q0 -68 -49 -115t-117 -47q-70 0 -118 47t-48 115v520zM131 735v520q0 66 48 113t118 47q68 0 117 -47t49 -113v-520q0 -68 -49 -115t-117 -47q-70 0 -118 47.5t-48 114.5z" />
<glyph unicode="&#xa7;" horiz-adv-x="1134" d="M92 514q1 193 144 332q-51 80 -52 180q0 172 118 280.5t302 108.5q164 0 273 -61q104 -59 104 -144q0 -59 -42 -100t-99 -41q-23 0 -41.5 6t-27.5 12.5t-27.5 19.5t-26.5 19q-45 33 -101 33q-27 0 -55.5 -19.5t-28.5 -66.5q0 -53 52.5 -107.5t127 -104.5t150.5 -108.5 t128 -142.5t52 -180q0 -193 -143 -332q51 -80 51 -180q0 -172 -116.5 -280.5t-301.5 -108.5q-166 0 -274 61q-104 59 -104 144q0 59 42 100t101 41q16 0 30.5 -3t28 -10t20.5 -11.5t22.5 -16.5t21.5 -16q45 -31 98 -31q16 0 32.5 5t34 26.5t17.5 54.5q0 53 -52 106.5 t-127 103.5t-150.5 108.5t-128 142.5t-52.5 180zM438 563q0 -14 4 -29.5t9.5 -27.5t16.5 -27.5t18.5 -25t25.5 -25.5t27.5 -23.5t33 -25t32.5 -23.5t36 -24.5t37 -24.5q18 37 18 74q0 14 -4 29.5t-9 28t-16.5 27.5t-18.5 24.5t-25.5 25.5t-27.5 23.5t-32.5 25t-33 23.5 t-36 24.5t-36.5 24.5q-18 -37 -19 -74z" />
<glyph unicode="&#xa8;" horiz-adv-x="1003" d="M53 1347.5q0 77.5 55.5 133t133.5 55.5q80 0 135 -55.5t55 -133t-55 -134t-135 -56.5q-78 0 -133.5 56.5t-55.5 134zM573 1347.5q0 77.5 55.5 133t133.5 55.5t133 -55.5t55 -133t-55 -134t-133 -56.5t-133.5 56.5t-55.5 134z" />
<glyph unicode="&#xa9;" horiz-adv-x="1677" d="M76 735.5q0 313.5 220 533.5t533.5 220t534.5 -220t221 -533.5t-220 -533.5t-533.5 -220t-534.5 220t-221 533.5zM256 735.5q0 -243.5 166 -413.5t407.5 -170t408.5 170t167 413.5t-166 413.5t-407.5 170t-408.5 -170t-167 -413.5zM469 727q0 162 116.5 269.5 t280.5 107.5q80 0 160 -25q70 -23 70 -84q0 -39 -26 -63.5t-62 -24.5q-2 0 -72 19q-37 8 -74 8q-82 0 -139 -58.5t-57 -146.5q0 -90 56 -148.5t140 -58.5q43 0 78 10q68 19 80 19q39 0 64.5 -24.5t25.5 -63.5q0 -59 -72 -84q-76 -29 -174 -29q-178 0 -286.5 103.5 t-108.5 273.5z" />
<glyph unicode="&#xaa;" horiz-adv-x="620" d="M63 1010q1 88 91 135q68 35 211 49v4q0 43 -19 62q-16 16 -49 16q-37 0 -79 -22.5t-60 -22.5q-29 0 -49.5 20.5t-20.5 48.5q0 53 78 84t158 31q100 0 163 -51q70 -55 70 -188v-246q0 -39 -28.5 -66.5t-67.5 -27.5q-45 0 -74 34l-10 13q-55 -47 -141 -47q-74 0 -123 47 q-49 49 -50 127zM135 561q0 29 19.5 49.5t46.5 20.5h223q27 0 46 -20.5t19 -49.5t-19 -48t-46 -19h-223q-27 0 -46.5 19t-19.5 48zM250 1014q0 -25 16 -37q14 -10 37 -10q15 0 33 6q25 12 29 16v90q-61 -10 -80 -20q-35 -18 -35 -45z" />
<glyph unicode="&#xab;" horiz-adv-x="1406" d="M82 460.5q0 55.5 45 104.5l319 332q43 45 109 45q61 0 105.5 -43t44.5 -104.5t-41 -106.5l-220 -227l220 -228q41 -45 41 -106q0 -63 -45.5 -105t-106.5 -42q-63 0 -107 45l-319 331q-45 49 -45 104.5zM703 460.5q0 55.5 45 104.5l319 332q43 45 109 45q61 0 105.5 -43 t44.5 -104.5t-41 -106.5l-220 -227l220 -228q41 -45 41 -106q0 -63 -45.5 -105t-106.5 -42q-63 0 -107 45l-319 331q-45 49 -45 104.5z" />
<glyph unicode="&#xac;" horiz-adv-x="1232" d="M72 723q0 68 45.5 116t111.5 48h772q66 0 113 -48t47 -116v-266q0 -63 -46 -107.5t-111 -44.5q-63 0 -110.5 45t-47.5 107v102h-617q-66 0 -111.5 48t-45.5 116z" />
<glyph unicode="&#xad;" horiz-adv-x="1089" d="M174 565q0 61 45 108.5t107 47.5h440q61 0 105 -47t44 -109q0 -63 -44 -109t-105 -46h-440q-63 0 -107.5 45t-44.5 110z" />
<glyph unicode="&#xae;" horiz-adv-x="921" d="M76 1091.5q0 155.5 109.5 266t265.5 110.5q158 0 268 -110.5t110 -266t-110.5 -265t-266 -109.5t-266 109.5t-110.5 265zM166 1091.5q0 -120.5 83 -204.5t202 -84q121 0 203.5 84t82.5 205q0 123 -82 206.5t-202.5 83.5t-203.5 -85t-83 -205.5zM299 952v281 q0 20 13.5 33.5t33.5 13.5h127q61 0 98 -33t37 -92q0 -66 -53 -100l45 -72q12 -18 12 -31q0 -20 -14 -33.5t-35 -13.5q-27 0 -39 23l-65 104h-64v-80q0 -18 -14 -32.5t-35 -14.5q-18 0 -32.5 14.5t-14.5 32.5zM395 1112h66q51 0 51 45q0 43 -51 43h-66v-88z" />
<glyph unicode="&#xaf;" horiz-adv-x="1003" d="M195 1315q0 57 38.5 96t94.5 39h348q55 0 94 -39t39 -96q0 -55 -39 -94t-94 -39h-348q-55 0 -94 39t-39 94z" />
<glyph unicode="&#xb0;" horiz-adv-x="757" d="M102 1214.5q0 114.5 81 195.5t196 81t195.5 -81t80.5 -195.5t-80.5 -195.5t-195.5 -81t-196 81t-81 195.5zM238 1214.5q0 -61.5 39.5 -103.5t101.5 -42q59 0 102 43t43 102q0 61 -42 101.5t-103.5 40.5t-101 -40t-39.5 -101.5z" />
<glyph unicode="&#xb1;" horiz-adv-x="1198" d="M72 156q0 63 44 109t107 46h752q63 0 107 -46t44 -109q0 -66 -44 -111t-107 -45h-752q-63 0 -107 45t-44 111zM72 887q0 61 45 108t106 47h219v220q0 63 45 107t111 44q63 0 109.5 -44t46.5 -107v-220h221q61 0 106 -47t45 -108q0 -66 -44 -111t-107 -45h-221v-221 q0 -61 -46 -105.5t-109.5 -44.5t-110 44.5t-46.5 105.5v221h-219q-63 0 -107 45t-44 111z" />
<glyph unicode="&#xb2;" horiz-adv-x="854" d="M164 764q0 145 82 227q45 45 151 99q98 51 99 108q0 27 -20.5 44.5t-55.5 17.5q-39 0 -80 -27q-49 -31 -84 -31q-33 0 -56.5 22.5t-23.5 55.5q0 61 82 100q76 35 168 35q111 0 177.5 -59.5t66.5 -151.5q0 -98 -68 -166q-27 -25 -55.5 -43t-68.5 -38.5t-60 -32.5 q-53 -31 -53 -80h235q33 0 55.5 -23.5t22.5 -56.5q0 -35 -22.5 -58.5t-55.5 -23.5h-350q-41 0 -63.5 22.5t-22.5 59.5z" />
<glyph unicode="&#xb3;" horiz-adv-x="854" d="M180 780q0 33 23.5 56.5t56.5 23.5q20 0 70 -29q25 -16 59 -16q88 0 88 78q0 45 -43 68q-20 10 -65 12t-66 12q-35 18 -35 63.5t35 63.5q16 8 55 9t62 14q35 16 35 63q0 25 -14.5 43.5t-45 18.5t-63.5 -21q-33 -23 -62 -22q-33 0 -57.5 23.5t-24.5 53.5q0 51 54 80 q80 41 168 41q100 0 155.5 -55t55.5 -137q0 -117 -99 -164q129 -51 129 -182q0 -90 -65.5 -147.5t-182.5 -57.5q-80 0 -131 16q-92 29 -92 92z" />
<glyph unicode="&#xb4;" horiz-adv-x="1003" d="M326 1253q0 33 20 74l86 182q37 80 115 80q51 0 90 -35.5t39 -85.5q0 -33 -31 -84l-104 -167q-41 -68 -105 -68q-45 0 -77.5 30.5t-32.5 73.5z" />
<glyph unicode="&#xb5;" horiz-adv-x="1183" d="M109 -215v1018q0 66 48 113t117.5 47t117.5 -47.5t48 -112.5v-381q0 -59 21 -100q37 -72 131 -72t131 72q20 41 20 100v381q0 66 48.5 113t118 47t117.5 -47.5t48 -112.5v-391q0 -178 -90 -285q-123 -147 -393 -147q-70 0 -152 14v-209q0 -66 -50 -114t-116 -48 q-70 0 -117.5 48t-47.5 114z" />
<glyph unicode="&#xb6;" horiz-adv-x="1613" d="M66 1053q0 199 122.5 306t348.5 107h925q55 0 94 -41t39 -96q0 -57 -38.5 -97t-94.5 -40h-188v-1460q0 -57 -44 -99.5t-103.5 -42.5t-102.5 42t-43 100v1460h-219v-1460q0 -57 -44 -99.5t-103.5 -42.5t-102.5 42t-43 100v905q-188 10 -295.5 121.5t-107.5 294.5z" />
<glyph unicode="&#xb7;" horiz-adv-x="595" d="M94 707q0 86 60.5 146t146.5 60t146.5 -60t60.5 -146t-60.5 -146.5t-146.5 -60.5t-146.5 60.5t-60.5 146.5z" />
<glyph unicode="&#xb8;" horiz-adv-x="976" d="M291 -365q0 33 24.5 57.5t57.5 24.5q12 0 39.5 -4t44.5 -4q100 0 100 58q0 61 -98 61q-25 0 -44.5 19.5t-13.5 52.5l15 149h164l2 -100q94 -12 142 -66.5t48 -120.5q0 -113 -91 -166t-235 -53q-47 0 -81 8q-74 16 -74 84z" />
<glyph unicode="&#xb9;" horiz-adv-x="854" d="M141 1262q0 66 60 81l196 64q25 8 43 8q84 0 84 -92v-479h105q35 0 55.5 -23.5t20.5 -56.5q0 -35 -20.5 -58.5t-55.5 -23.5h-406q-33 0 -55.5 23.5t-22.5 58.5q0 31 22.5 55.5t55.5 24.5h117v375l-80 -25q-23 -8 -43 -8q-33 0 -54.5 20.5t-21.5 55.5z" />
<glyph unicode="&#xba;" horiz-adv-x="753" d="M72 1124.5q0 112.5 67 190.5q88 100 237.5 100t237.5 -100q68 -78 68 -190.5t-68 -190.5q-88 -100 -237.5 -100t-237.5 100q-67 78 -67 190.5zM199 561q0 29 19 49.5t46 20.5h223q27 0 46.5 -20.5t19.5 -49.5t-19.5 -48t-46.5 -19h-223q-27 0 -46 19t-19 48zM264 1124 q0 -47 23 -82q31 -49 90 -49t90 49q23 35 22.5 82t-22.5 82q-31 49 -90.5 49t-89.5 -49q-23 -35 -23 -82z" />
<glyph unicode="&#xbb;" horiz-adv-x="1406" d="M82 127q0 61 41 106l219 228l-219 227q-41 45 -41 106.5t44 104.5t105 43q66 0 109 -45l319 -332q45 -49 45.5 -104t-45.5 -105l-319 -331q-44 -45 -107 -45q-61 0 -106 41.5t-45 105.5zM703 127q0 61 41 106l219 228l-219 227q-41 45 -41 106.5t44 104.5t105 43 q66 0 109 -45l319 -332q45 -49 45.5 -104t-45.5 -105l-319 -331q-44 -45 -107 -45q-61 0 -106 41.5t-45 105.5z" />
<glyph unicode="&#xbc;" horiz-adv-x="854" d="M82 485.5q0 34.5 22.5 57t57.5 22.5h530q33 0 56.5 -23.5t23.5 -56t-23.5 -57.5t-56.5 -25h-530q-33 0 -56.5 24t-23.5 58.5zM109 -229q0 27 18 51l319 438q33 43 74 43q37 0 62.5 -26.5t25.5 -61.5v-367h47q29 0 51.5 -23.5t22.5 -54t-22.5 -53t-51.5 -22.5h-47v-49 q0 -35 -25.5 -60.5t-62.5 -25.5t-62.5 25.5t-25.5 60.5v49h-248q-33 0 -54 22.5t-21 53.5zM141 1262q0 66 60 81l196 64q25 8 43 8q84 0 84 -92v-479h105q35 0 55.5 -23.5t20.5 -56.5q0 -35 -20.5 -58.5t-55.5 -23.5h-406q-33 0 -55.5 23.5t-22.5 58.5q0 31 22.5 55.5 t55.5 24.5h117v375l-80 -25q-23 -8 -43 -8q-33 0 -54.5 20.5t-21.5 55.5zM334 -152h98v134z" />
<glyph unicode="&#xbd;" horiz-adv-x="854" d="M82 485.5q0 34.5 22.5 57t57.5 22.5h530q37 0 58.5 -22.5t21.5 -57t-21.5 -58.5t-58.5 -24h-530q-37 0 -58.5 24t-21.5 58.5zM141 1262q0 66 60 81l196 64q25 8 43 8q84 0 84 -92v-479h105q35 0 55.5 -23.5t20.5 -56.5q0 -35 -20.5 -58.5t-55.5 -23.5h-406 q-33 0 -55.5 23.5t-22.5 58.5q0 31 22.5 55.5t55.5 24.5h117v375l-80 -25q-25 -8 -43 -8q-33 0 -54.5 20.5t-21.5 55.5zM164 -348q0 145 82 227q45 45 151 98q98 51 99 109q0 27 -20.5 44t-55.5 17q-39 0 -80 -26q-49 -31 -84 -31q-33 0 -56.5 22.5t-23.5 55.5q0 61 82 100 q76 35 168 35q111 0 177.5 -59.5t66.5 -151.5q0 -98 -68 -166q-27 -25 -55.5 -43t-68.5 -38.5t-60 -32.5q-53 -31 -53 -80h235q33 0 55.5 -23.5t22.5 -56.5q0 -35 -22.5 -58.5t-55.5 -23.5h-350q-41 0 -63.5 22.5t-22.5 59.5z" />
<glyph unicode="&#xbe;" horiz-adv-x="854" d="M82 485.5q0 34.5 22.5 57t57.5 22.5h530q33 0 56.5 -23.5t23.5 -56t-23.5 -57.5t-56.5 -25h-530q-33 0 -56.5 24t-23.5 58.5zM109 -229q0 27 18 51l319 438q33 43 74 43q37 0 62.5 -26.5t25.5 -61.5v-367h47q29 0 51.5 -23.5t22.5 -54t-22.5 -53t-51.5 -22.5h-47v-49 q0 -35 -25.5 -60.5t-62.5 -25.5t-62.5 25.5t-25.5 60.5v49h-248q-33 0 -54 22.5t-21 53.5zM180 780q0 33 23.5 56.5t56.5 23.5q20 0 70 -29q25 -16 59 -16q88 0 88 78q0 45 -43 68q-20 10 -65 12t-66 12q-35 18 -35 63.5t35 63.5q16 8 55 9t62 14q35 16 35 63 q0 25 -14.5 43.5t-45 18.5t-63.5 -21q-33 -23 -62 -22q-33 0 -57.5 23.5t-24.5 53.5q0 51 54 80q80 41 168 41q100 0 155.5 -55t55.5 -137q0 -117 -99 -164q129 -51 129 -182q0 -90 -65.5 -147.5t-182.5 -57.5q-80 0 -131 16q-92 29 -92 92zM334 -152h98v134z" />
<glyph unicode="&#xbf;" horiz-adv-x="1017" d="M76 -78q0 106 47 183t160 153q100 66 129 135q49 115 157 115q63 0 107.5 -48t44.5 -118q0 -80 -84 -174q-27 -29 -172 -152q-53 -45 -53 -94q0 -43 37.5 -71.5t105.5 -28.5q78 0 156 47q20 12 51 38.5t58.5 41t62.5 14.5q57 0 99 -44t42 -105q0 -59 -31.5 -99.5 t-99.5 -83.5q-162 -104 -363 -104q-197 0 -325.5 113.5t-128.5 281.5zM367 766q0 82 57 139.5t139 57.5t139.5 -57.5t57.5 -139.5t-57.5 -139.5t-139.5 -57.5q-84 0 -140 57.5t-56 139.5z" />
<glyph unicode="&#xc0;" horiz-adv-x="1263" d="M20 145q0 35 17 76l344 1006q63 188 254 188q195 0 258 -188l336 -1006q14 -43 14 -76q0 -76 -51 -120.5t-131 -44.5q-137 -1 -172 118l-45 154h-428l-47 -154q-37 -119 -176 -118q-78 0 -125.5 48t-47.5 117zM457 1886q0 49 38.5 85t90.5 36q78 0 114 -80l86 -182 q21 -41 21 -74q0 -43 -33 -73.5t-78 -30.5q-68 0 -104 68l-105 167q-31 51 -30 84zM504 541h254l-125 424z" />
<glyph unicode="&#xc1;" horiz-adv-x="1263" d="M20 145q0 35 17 76l344 1006q63 188 254 188q195 0 258 -188l336 -1006q14 -43 14 -76q0 -76 -51 -120.5t-131 -44.5q-137 -1 -172 118l-45 154h-428l-47 -154q-37 -119 -176 -118q-78 0 -125.5 48t-47.5 117zM457 1671q0 33 20 74l86 182q37 80 115 80q51 0 90 -35.5 t39 -85.5q0 -33 -31 -84l-104 -167q-41 -68 -105 -68q-45 0 -77.5 30.5t-32.5 73.5zM504 541h254l-125 424z" />
<glyph unicode="&#xc2;" horiz-adv-x="1263" d="M20 145q0 35 17 76l344 1006q63 188 254 188q195 0 258 -188l336 -1006q14 -43 14 -76q0 -76 -51 -120.5t-131 -44.5q-137 -1 -172 118l-45 154h-428l-47 -154q-37 -119 -176 -118q-78 0 -125.5 48t-47.5 117zM289 1690q0 49 53 96l201 180q45 37 88 37t88 -37l201 -180 q53 -47 53 -96q0 -51 -34 -84t-81 -33q-43 0 -80 31l-147 133l-148 -133q-37 -31 -80 -31q-47 0 -80.5 33t-33.5 84zM504 541h254l-125 424z" />
<glyph unicode="&#xc3;" horiz-adv-x="1263" d="M20 145q0 35 17 76l344 1006q63 188 254 188q195 0 258 -188l336 -1006q14 -43 14 -76q0 -76 -51 -120.5t-131 -44.5q-137 -1 -172 118l-45 154h-428l-47 -154q-37 -119 -176 -118q-78 0 -125.5 48t-47.5 117zM242 1733q0 78 51 135q72 84 174 84q86 0 166 -55 q6 -4 31.5 -22.5t34.5 -24.5t27.5 -13.5t35.5 -7.5q18 0 34.5 12.5t19.5 16.5t19 31q31 49 86 49q47 0 74 -32t27 -81q0 -78 -51 -135q-72 -84 -174 -84q-86 0 -166 55q-6 4 -32 22.5t-35 25t-27.5 13.5t-34.5 7q-18 0 -35 -12.5t-20 -16.5t-19 -31q-31 -49 -86 -49 q-47 0 -73.5 32t-26.5 81zM504 541h254l-125 424z" />
<glyph unicode="&#xc4;" horiz-adv-x="1263" d="M20 145q0 35 17 76l344 1006q63 188 254 188q195 0 258 -188l336 -1006q14 -43 14 -76q0 -76 -51 -120.5t-131 -44.5q-137 -1 -172 118l-45 154h-428l-47 -154q-37 -119 -176 -118q-78 0 -125.5 48t-47.5 117zM182 1757.5q0 77.5 55.5 133t133.5 55.5q80 0 135 -55.5 t55 -133t-55 -134t-135 -56.5q-78 0 -133.5 56.5t-55.5 134zM504 541h254l-125 424zM702 1757.5q0 77.5 55.5 133t133.5 55.5t133 -55.5t55 -133t-55 -134t-133 -56.5t-133.5 56.5t-55.5 134z" />
<glyph unicode="&#xc5;" horiz-adv-x="1263" d="M20 145q0 35 17 76l344 1006q63 188 254 188q195 0 258 -188l336 -1006q14 -43 14 -76q0 -76 -51 -120.5t-131 -44.5q-137 -1 -172 118l-45 154h-428l-47 -154q-37 -119 -176 -118q-78 0 -125.5 48t-47.5 117zM377 1753q0 106 74.5 181t181.5 75q104 0 179 -75t75 -181 q0 -104 -75 -178t-179 -74q-106 0 -181 74t-75 178zM504 541h254l-125 424zM520 1753q0 -47 33 -80t80 -33t79.5 34t32.5 79q0 49 -32.5 83t-79.5 34t-80 -34t-33 -83z" />
<glyph unicode="&#xc6;" horiz-adv-x="2035" d="M20 147q0 66 52 132l745 948q68 86 130.5 126t162.5 42h713q61 0 107 -48.5t46 -111.5q0 -66 -45 -113t-108 -47h-502v-213h391q63 0 109.5 -48t46.5 -112q0 -66 -46 -112.5t-110 -46.5h-391v-224h502q61 0 107 -48t46 -111q0 -66 -45 -113t-108 -47h-682q-76 0 -128 51 t-52 123v78h-469l-117 -154q-39 -49 -54.5 -66.5t-50 -34.5t-80.5 -17q-80 0 -125 45t-45 122zM713 541h248v327z" />
<glyph unicode="&#xc7;" horiz-adv-x="1335" d="M76 698q0 305 224 510t534 205q172 0 305 -45q131 -45 131 -160q0 -72 -49.5 -120t-118.5 -48q-18 0 -39 5.5t-48.5 14.5t-47.5 13q-59 16 -142 17q-156 0 -264 -111t-108 -281t105.5 -280.5t266.5 -110.5q78 0 148 19q23 6 56.5 16t56 15t40.5 5q70 0 119 -48t49 -119 q0 -111 -135 -162q-121 -43 -264 -51l2 -33q94 -12 142 -66.5t48 -120.5q0 -113 -91 -166t-234 -53q-47 0 -82 8q-74 16 -74 84q0 33 24.5 57.5t57.5 24.5q12 0 40 -4t44 -4q100 0 100 58q0 61 -98 61q-25 0 -44 19.5t-13 52.5l8 86q-293 31 -471 221t-178 491z" />
<glyph unicode="&#xc8;" horiz-adv-x="1308" d="M131 174v1047q0 72 52.5 123t127.5 51h785q63 0 108 -47.5t45 -113t-45 -112.5t-108 -47h-604v-213h495q63 0 108.5 -47t45.5 -112.5t-45 -112.5t-109 -47h-495v-224h604q63 0 108 -47t45 -112.5t-45 -112.5t-108 -47h-785q-76 0 -128 51t-52 123zM480 1878q0 49 38.5 85 t90.5 36q78 0 114 -80l86 -182q21 -41 21 -74q0 -43 -33 -73.5t-78 -30.5q-68 0 -104 68l-105 167q-31 51 -30 84z" />
<glyph unicode="&#xc9;" horiz-adv-x="1308" d="M131 174v1047q0 72 52.5 123t127.5 51h785q63 0 108 -47.5t45 -113t-45 -112.5t-108 -47h-604v-213h495q63 0 108.5 -47t45.5 -112.5t-45 -112.5t-109 -47h-495v-224h604q63 0 108 -47t45 -112.5t-45 -112.5t-108 -47h-785q-76 0 -128 51t-52 123zM478 1663q0 33 20 74 l86 182q37 80 115 80q51 0 90 -35.5t39 -85.5q0 -33 -31 -84l-104 -167q-41 -68 -105 -68q-45 0 -77.5 30.5t-32.5 73.5z" />
<glyph unicode="&#xca;" horiz-adv-x="1308" d="M131 174v1047q0 72 52.5 123t127.5 51h785q63 0 108 -47.5t45 -113t-45 -112.5t-108 -47h-604v-213h495q63 0 108.5 -47t45.5 -112.5t-45 -112.5t-109 -47h-495v-224h604q63 0 108 -47t45 -112.5t-45 -112.5t-108 -47h-785q-76 0 -128 51t-52 123zM312 1682q0 49 53 96 l201 180q45 37 88 37t88 -37l201 -180q53 -47 53 -96q0 -51 -34 -84t-81 -33q-43 0 -80 31l-147 133l-148 -133q-37 -31 -80 -31q-47 0 -80.5 33t-33.5 84z" />
<glyph unicode="&#xcb;" horiz-adv-x="1308" d="M131 174v1047q0 72 52.5 123t127.5 51h785q63 0 108 -47.5t45 -113t-45 -112.5t-108 -47h-604v-213h495q63 0 108.5 -47t45.5 -112.5t-45 -112.5t-109 -47h-495v-224h604q63 0 108 -47t45 -112.5t-45 -112.5t-108 -47h-785q-76 0 -128 51t-52 123zM205 1757 q0 78 55 133.5t133 55.5q80 0 135.5 -55.5t55.5 -133.5t-55.5 -134t-135.5 -56q-78 0 -133 56t-55 134zM725 1757q0 78 55.5 133.5t133 55.5t133 -55.5t55.5 -133.5t-55.5 -134t-133 -56t-133 56t-55.5 134z" />
<glyph unicode="&#xcc;" horiz-adv-x="622" d="M131 154v1085q0 72 53.5 123t126.5 51q76 0 128.5 -51t52.5 -123v-1085q0 -72 -53.5 -123t-127 -51t-127 51t-53.5 123zM138 1878q0 49 38.5 85t90.5 36q78 0 114 -80l86 -182q21 -41 21 -74q0 -43 -33 -73.5t-78 -30.5q-68 0 -104 68l-105 167q-31 51 -30 84z" />
<glyph unicode="&#xcd;" horiz-adv-x="622" d="M131 154v1085q0 72 53.5 123t126.5 51q76 0 128.5 -51t52.5 -123v-1085q0 -72 -53.5 -123t-127 -51t-127 51t-53.5 123zM138 1663q0 33 20 74l86 182q37 80 115 80q51 0 90 -35.5t39 -85.5q0 -33 -31 -84l-104 -167q-41 -68 -105 -68q-45 0 -77.5 30.5t-32.5 73.5z" />
<glyph unicode="&#xce;" horiz-adv-x="622" d="M-30 1682q0 49 53 96l201 180q45 37 88 37t88 -37l201 -180q53 -47 53 -96q0 -51 -34 -84t-81 -33q-43 0 -80 31l-147 133l-148 -133q-37 -31 -80 -31q-47 0 -80.5 33t-33.5 84zM131 154v1085q0 72 53.5 123t126.5 51q76 0 128.5 -51t52.5 -123v-1085q0 -72 -53.5 -123 t-127 -51t-127 51t-53.5 123z" />
<glyph unicode="&#xcf;" horiz-adv-x="622" d="M-137 1757q0 78 55 133.5t133 55.5q80 0 135.5 -55.5t55.5 -133.5t-55.5 -134t-135.5 -56q-78 0 -133 56t-55 134zM131 154v1085q0 72 53.5 123t126.5 51q76 0 128.5 -51t52.5 -123v-1085q0 -72 -53.5 -123t-127 -51t-127 51t-53.5 123zM383 1757q0 78 55.5 133.5 t133 55.5t133 -55.5t55.5 -133.5t-55.5 -134t-133 -56t-133 56t-55.5 134z" />
<glyph unicode="&#xd0;" horiz-adv-x="1550" d="M-41 698q0 61 45 108.5t107 47.5h47v367q0 72 52 123t128 51h393q176 0 315.5 -44t256.5 -165q172 -178 172 -488q0 -311 -172 -489q-201 -209 -598 -209h-367q-76 0 -128 51t-52 123v369h-47q-63 0 -107.5 45t-44.5 110zM518 303h162q182 0 285 72q141 96 141 323 q0 184 -94 283q-109 111 -332 111h-162v-238h129q61 0 105.5 -47t44.5 -109q0 -63 -44.5 -109t-105.5 -46h-129v-240z" />
<glyph unicode="&#xd1;" horiz-adv-x="1523" d="M131 141v1076q0 82 60.5 139t146.5 57q109 0 174 -90l537 -721v647q0 68 50 116t121.5 48t122 -48t50.5 -116v-1073q0 -82 -61.5 -139t-147.5 -57q-111 0 -174 88l-535 725v-652q0 -68 -50 -114.5t-122 -46.5t-122 47t-50 114zM369 1731q0 78 51 135q72 84 174 84 q86 0 166 -55q6 -4 31.5 -22.5t34.5 -24.5t27.5 -13.5t35.5 -7.5q18 0 34.5 12.5t19.5 16.5t19 31q31 49 86 49q47 0 74 -32t27 -81q0 -78 -51 -135q-72 -84 -174 -84q-86 0 -166 55q-6 4 -32 22.5t-35 25t-27.5 13.5t-34.5 7q-18 0 -35 -12.5t-20 -16.5t-19 -31 q-31 -49 -86 -49q-47 0 -73.5 32t-26.5 81z" />
<glyph unicode="&#xd2;" horiz-adv-x="1660" d="M76 694q0 319 221 519t534 200q311 0 532.5 -201t221.5 -518q0 -319 -220 -516.5t-533.5 -197.5t-534.5 199.5t-221 514.5zM459 694q0 -166 104.5 -272.5t267.5 -106.5q162 0 266.5 106.5t104.5 272.5t-104.5 273.5t-266 107.5t-267 -107.5t-105.5 -273.5zM656 1878 q0 49 38.5 85t90.5 36q78 0 114 -80l86 -182q21 -41 21 -74q0 -43 -33 -73.5t-78 -30.5q-68 0 -104 68l-105 167q-31 51 -30 84z" />
<glyph unicode="&#xd3;" horiz-adv-x="1660" d="M76 694q0 319 221 519t534 200q311 0 532.5 -201t221.5 -518q0 -319 -220 -516.5t-533.5 -197.5t-534.5 199.5t-221 514.5zM459 694q0 -166 104.5 -272.5t267.5 -106.5q162 0 266.5 106.5t104.5 272.5t-104.5 273.5t-266 107.5t-267 -107.5t-105.5 -273.5zM656 1663 q0 33 20 74l86 182q37 80 115 80q51 0 90 -35.5t39 -85.5q0 -33 -31 -84l-104 -167q-41 -68 -105 -68q-45 0 -77.5 30.5t-32.5 73.5z" />
<glyph unicode="&#xd4;" horiz-adv-x="1660" d="M76 694q0 319 221 519t534 200q311 0 532.5 -201t221.5 -518q0 -319 -220 -516.5t-533.5 -197.5t-534.5 199.5t-221 514.5zM459 694q0 -166 104.5 -272.5t267.5 -106.5q162 0 266.5 106.5t104.5 272.5t-104.5 273.5t-266 107.5t-267 -107.5t-105.5 -273.5zM488 1682 q0 49 53 96l201 180q45 37 88 37t88 -37l201 -180q53 -47 53 -96q0 -51 -34 -84t-81 -33q-43 0 -80 31l-147 133l-148 -133q-37 -31 -80 -31q-47 0 -80.5 33t-33.5 84z" />
<glyph unicode="&#xd5;" horiz-adv-x="1660" d="M76 694q0 319 221 519t534 200q311 0 532.5 -201t221.5 -518q0 -319 -220 -516.5t-533.5 -197.5t-534.5 199.5t-221 514.5zM437 1731q0 78 51 135q72 84 174 84q86 0 166 -55q6 -4 31.5 -22.5t34.5 -24.5t27.5 -13.5t35.5 -7.5q18 0 34.5 12.5t19.5 16.5t19 31 q31 49 86 49q47 0 74 -32t27 -81q0 -78 -51 -135q-72 -84 -174 -84q-86 0 -166 55q-6 4 -32 22.5t-35 25t-27.5 13.5t-34.5 7q-18 0 -35 -12.5t-20 -16.5t-19 -31q-31 -49 -86 -49q-47 0 -73.5 32t-26.5 81zM459 694q0 -166 104.5 -272.5t267.5 -106.5q162 0 266.5 106.5 t104.5 272.5t-104.5 273.5t-266 107.5t-267 -107.5t-105.5 -273.5z" />
<glyph unicode="&#xd6;" horiz-adv-x="1660" d="M76 694q0 319 221 519t534 200q311 0 532.5 -201t221.5 -518q0 -319 -220 -516.5t-533.5 -197.5t-534.5 199.5t-221 514.5zM381 1757.5q0 77.5 55.5 133t133.5 55.5q80 0 135 -55.5t55 -133t-55 -134t-135 -56.5q-78 0 -133.5 56.5t-55.5 134zM459 694 q0 -166 104.5 -272.5t267.5 -106.5q162 0 266.5 106.5t104.5 272.5t-104.5 273.5t-266 107.5t-267 -107.5t-105.5 -273.5zM901 1757.5q0 77.5 55.5 133t133.5 55.5t133 -55.5t55 -133t-55 -134t-133 -56.5t-133.5 56.5t-55.5 134z" />
<glyph unicode="&#xd7;" horiz-adv-x="1101" d="M71 1047.5q1 62.5 46 109.5q45 45 108.5 46t108.5 -44l217 -217l217 219q45 43 108.5 41t108.5 -45q45 -47 46 -109.5t-42 -107.5l-219 -217l219 -217q43 -45 42 -108.5t-46 -108.5q-47 -45 -109.5 -46t-107.5 42l-217 219l-217 -217q-45 -45 -107.5 -44t-109.5 46 q-43 45 -44 108.5t42 108.5l217 217l-217 217q-45 45 -44 107.5z" />
<glyph unicode="&#xd8;" horiz-adv-x="1660" d="M76 694q0 319 221 519t534 200q207 0 388 -96l38 45q33 39 86 39q49 0 84 -35t35 -84q0 -45 -26 -74l-33 -37q182 -195 182 -477q0 -319 -220 -516.5t-534 -197.5q-213 0 -389 94l-39 -45q-33 -39 -86 -39q-49 0 -83.5 34.5t-34.5 84.5q0 45 26 73l31 37 q-180 197 -180 475zM461 694q0 -104 47 -188l471 536q-72 33 -148 33q-154 0 -262 -112.5t-108 -268.5zM682 346q68 -31 149 -31q154 0 263.5 112.5t109.5 266.5q0 104 -51 191z" />
<glyph unicode="&#xd9;" horiz-adv-x="1484" d="M129 551v688q0 72 53.5 123t126.5 51q76 0 128 -51t52 -123v-651q0 -133 52 -199q65 -84 198 -84q139 0 205 84q51 66 51 199v651q0 72 52.5 123t128.5 51q74 0 127 -51t53 -123v-688q0 -231 -123 -379q-166 -193 -492 -192q-324 0 -489 192q-123 147 -123 379zM568 1878 q0 49 38.5 85t90.5 36q78 0 114 -80l86 -182q21 -41 21 -74q0 -43 -33 -73.5t-78 -30.5q-68 0 -104 68l-105 167q-31 51 -30 84z" />
<glyph unicode="&#xda;" horiz-adv-x="1484" d="M129 551v688q0 72 53.5 123t126.5 51q76 0 128 -51t52 -123v-651q0 -133 52 -199q65 -84 198 -84q139 0 205 84q51 66 51 199v651q0 72 52.5 123t128.5 51q74 0 127 -51t53 -123v-688q0 -231 -123 -379q-166 -193 -492 -192q-324 0 -489 192q-123 147 -123 379zM568 1663 q0 33 20 74l86 182q37 80 115 80q51 0 90 -35.5t39 -85.5q0 -33 -31 -84l-104 -167q-41 -68 -105 -68q-45 0 -77.5 30.5t-32.5 73.5z" />
<glyph unicode="&#xdb;" horiz-adv-x="1484" d="M129 551v688q0 72 53.5 123t126.5 51q76 0 128 -51t52 -123v-651q0 -133 52 -199q65 -84 198 -84q139 0 205 84q51 66 51 199v651q0 72 52.5 123t128.5 51q74 0 127 -51t53 -123v-688q0 -231 -123 -379q-166 -193 -492 -192q-324 0 -489 192q-123 147 -123 379zM400 1682 q0 49 53 96l201 180q45 37 88 37t88 -37l201 -180q53 -47 53 -96q0 -51 -34 -84t-81 -33q-43 0 -80 31l-147 133l-148 -133q-37 -31 -80 -31q-47 0 -80.5 33t-33.5 84z" />
<glyph unicode="&#xdc;" horiz-adv-x="1484" d="M129 551v688q0 72 53.5 123t126.5 51q76 0 128 -51t52 -123v-651q0 -133 52 -199q65 -84 198 -84q139 0 205 84q51 66 51 199v651q0 72 52.5 123t128.5 51q74 0 127 -51t53 -123v-688q0 -231 -123 -379q-166 -193 -492 -192q-324 0 -489 192q-123 147 -123 379z M260 1757.5q0 77.5 55.5 133t133.5 55.5q80 0 135 -55.5t55 -133t-55 -134t-135 -56.5q-78 0 -133.5 56.5t-55.5 134zM780 1757.5q0 77.5 55.5 133t133.5 55.5t133 -55.5t55 -133t-55 -134t-133 -56.5t-133.5 56.5t-55.5 134z" />
<glyph unicode="&#xdd;" horiz-adv-x="1208" d="M20 1241q0 74 51.5 123t127.5 49q100 0 149 -78l252 -409l260 411q51 76 150 76q76 0 127 -49t51 -125q0 -66 -33 -113l-373 -563v-409q0 -72 -53 -123t-127 -51t-127 51t-53 123v411l-369 563q-33 53 -33 113zM455 1663q0 33 20 74l86 182q37 80 115 80q51 0 90 -35.5 t39 -85.5q0 -33 -31 -84l-104 -167q-41 -68 -105 -68q-45 0 -77.5 30.5t-32.5 73.5z" />
<glyph unicode="&#xde;" horiz-adv-x="1345" d="M131 -94v1333q0 72 53.5 123t126.5 51q76 0 128.5 -51t52.5 -123v-92h272q211 0 340 -109q174 -143 174 -393q0 -258 -188 -403q-125 -98 -316 -99h-282v-237q0 -72 -53.5 -123t-127 -51t-127 51t-53.5 123zM492 459h227q92 0 139 41q53 47 53 145q0 86 -43 133 q-47 53 -149 53h-227v-372z" />
<glyph unicode="&#xdf;" horiz-adv-x="1251" d="M125 8v1018q0 180 132 284.5t318 104.5q223 0 345 -90t122 -246q0 -61 -23.5 -110t-56 -76t-65.5 -46.5t-56.5 -35t-23.5 -29.5q0 -29 32 -51t94.5 -51t94.5 -51q143 -100 144 -279q0 -156 -108.5 -263t-278.5 -107q-137 0 -215 36q-102 51 -103 148q0 63 34 102t93 39 q31 0 84 -24q45 -20 94 -21q82 0 82 66q0 43 -55 73q-8 4 -68.5 37t-88 52.5t-70.5 59.5t-62.5 90t-19.5 112q0 51 30.5 87.5t68.5 54t68.5 53.5t30.5 87q0 53 -34.5 84t-79.5 31q-14 0 -30.5 -4t-38 -14.5t-36 -37t-14.5 -65.5v-1018q0 -68 -51.5 -116t-118.5 -48 q-70 0 -120 48.5t-50 115.5z" />
<glyph unicode="&#xe0;" horiz-adv-x="1009" d="M61 276q0 158 162 236q119 55 346 78v14q0 53 -18 78q-23 31 -82 31q-63 0 -145 -35q-68 -27 -101 -27q-49 0 -84 35t-35 84q0 92 132 143q125 49 272 50q209 0 309 -109q84 -90 84 -248v-467q0 -66 -49 -112.5t-117 -46.5q-86 0 -135 65q-98 -66 -240 -65 q-131 0 -215 82.5t-84 213.5zM330 1468q0 49 39 85t90 36q78 0 114 -80l86 -182q21 -41 21 -74q0 -43 -33 -73.5t-78 -30.5q-68 0 -104 68l-105 167q-31 51 -30 84zM377 287q0 -74 92 -74q53 0 100 31v135q-82 -4 -118 -17q-74 -23 -74 -75z" />
<glyph unicode="&#xe1;" horiz-adv-x="1009" d="M61 276q0 158 162 236q119 55 346 78v14q0 53 -18 78q-23 31 -82 31q-63 0 -145 -35q-68 -27 -101 -27q-49 0 -84 35t-35 84q0 92 132 143q125 49 272 50q209 0 309 -109q84 -90 84 -248v-467q0 -66 -49 -112.5t-117 -46.5q-86 0 -135 65q-98 -66 -240 -65 q-131 0 -215 82.5t-84 213.5zM328 1253q0 33 20 74l86 182q37 80 115 80q51 0 90 -35.5t39 -85.5q0 -33 -31 -84l-104 -167q-41 -68 -105 -68q-45 0 -77.5 30.5t-32.5 73.5zM377 287q0 -74 92 -74q53 0 100 31v135q-82 -4 -118 -17q-74 -23 -74 -75z" />
<glyph unicode="&#xe2;" horiz-adv-x="1009" d="M61 276q0 158 162 236q119 55 346 78v14q0 53 -18 78q-23 31 -82 31q-63 0 -145 -35q-68 -27 -101 -27q-49 0 -84 35t-35 84q0 92 132 143q125 49 272 50q209 0 309 -109q84 -90 84 -248v-467q0 -66 -49 -112.5t-117 -46.5q-86 0 -135 65q-98 -66 -240 -65 q-131 0 -215 82.5t-84 213.5zM162 1272q0 49 53 96l201 180q45 37 88 37t88 -37l201 -180q53 -47 53 -96q0 -51 -34 -84t-81 -33q-43 0 -80 31l-147 133l-148 -133q-37 -31 -80 -31q-47 0 -80.5 33t-33.5 84zM377 287q0 -74 92 -74q53 0 100 31v135q-82 -4 -118 -17 q-74 -23 -74 -75z" />
<glyph unicode="&#xe3;" horiz-adv-x="1009" d="M61 276q0 158 162 236q119 55 346 78v14q0 53 -18 78q-23 31 -82 31q-63 0 -145 -35q-68 -27 -101 -27q-49 0 -84 35t-35 84q0 92 132 143q125 49 272 50q209 0 309 -109q84 -90 84 -248v-467q0 -66 -49 -112.5t-117 -46.5q-86 0 -135 65q-98 -66 -240 -65 q-131 0 -215 82.5t-84 213.5zM111 1321q0 78 51 135q72 84 174 84q86 0 166 -55q6 -4 31.5 -22.5t35 -24.5t27.5 -13.5t35 -7.5q18 0 34.5 12.5t19.5 16.5t20 31q31 49 86 49q47 0 73.5 -32t26.5 -81q0 -78 -51 -135q-72 -84 -174 -84q-86 0 -166 55q-6 4 -32 22.5t-35 25 t-27.5 13.5t-34.5 7q-18 0 -35 -12.5t-20 -16.5t-19 -31q-31 -49 -86 -49q-47 0 -73.5 32t-26.5 81zM377 287q0 -74 92 -74q53 0 100 31v135q-82 -4 -118 -17q-74 -23 -74 -75z" />
<glyph unicode="&#xe4;" horiz-adv-x="1009" d="M61 1347.5q0 77.5 55.5 133t133.5 55.5q80 0 135 -55.5t55 -133t-55 -134t-135 -56.5q-78 0 -133.5 56.5t-55.5 134zM68 276q0 158 161 236q119 55 346 78v14q0 53 -18 78q-20 31 -82 31q-63 0 -145 -35q-68 -27 -101 -27q-49 0 -83.5 35t-34.5 84q0 92 131 143 q127 49 272 50q209 0 309 -109q84 -90 84 -248v-467q0 -66 -49 -112.5t-117 -46.5q-86 0 -135 65q-98 -66 -239 -65q-131 0 -215 82.5t-84 213.5zM383 287q0 -74 92 -74q53 0 100 31v135q-82 -4 -118 -17q-74 -23 -74 -75zM582 1347.5q0 77.5 55 133t133 55.5t133 -55.5 t55 -133t-55 -134t-133 -56.5t-133 56.5t-55 134z" />
<glyph unicode="&#xe5;" horiz-adv-x="1009" d="M61 276q0 158 162 236q119 55 346 78v14q0 53 -18 78q-23 31 -82 31q-63 0 -145 -35q-68 -27 -101 -27q-49 0 -84 35t-35 84q0 92 132 143q125 49 272 50q209 0 309 -109q84 -90 84 -248v-467q0 -66 -49 -112.5t-117 -46.5q-86 0 -135 65q-98 -66 -240 -65 q-131 0 -215 82.5t-84 213.5zM250 1370q0 106 74.5 181t181.5 75q104 0 179 -75t75 -181q0 -104 -75 -178t-179 -74q-106 0 -181 74t-75 178zM377 287q0 -74 92 -74q53 0 100 31v135q-82 -4 -118 -17q-74 -23 -74 -75zM393 1370q0 -47 33 -80t80 -33t79.5 33t32.5 80 q0 49 -32.5 83t-79.5 34t-80 -34t-33 -83z" />
<glyph unicode="&#xe6;" horiz-adv-x="1574" d="M61 276q0 72 36 127.5t83 85t127 52t131 30t131 15.5v18q0 53 -18 78q-23 31 -82 31q-63 0 -145 -35q-68 -27 -101 -27q-49 0 -84 35t-35 84q0 92 132 143q125 49 272 50q86 0 162 -23q66 -20 108 -53q55 35 117 53q78 23 164 23q217 0 340 -123q119 -119 119 -289 q0 -78 -42 -122t-118 -44h-440q14 -66 55 -102q51 -47 139 -47q66 0 121 18q16 6 41.5 16.5t44.5 16.5t37 6q53 0 88 -38t35 -93q0 -96 -136 -146q-102 -37 -253 -36q-238 0 -385 139q-135 -139 -345 -139q-131 0 -215 82.5t-84 213.5zM377 287q0 -74 92 -74q76 0 137 61 q-18 45 -28 109q-201 -14 -201 -96zM918 584h278q-6 53 -33 84q-35 41 -102 41q-70 0 -105 -37q-28 -33 -38 -88z" />
<glyph unicode="&#xe7;" horiz-adv-x="991" d="M70 473q0 176 100 299q152 190 442 191q117 0 215 -43q125 -55 125 -154q0 -55 -40 -94t-95 -39q-25 0 -100 26q-59 25 -103 25q-92 0 -149 -57q-57 -61 -57 -154q0 -98 53 -158q55 -61 153 -61q49 0 109 18q10 4 31.5 13.5t36 12.5t34.5 3q55 0 93 -40t38 -95 q0 -106 -168 -160q-49 -16 -118 -22l2 -35q94 -12 142 -66.5t48 -120.5q0 -113 -91 -166t-234 -53q-47 0 -82 8q-74 16 -74 84q0 33 24.5 57.5t57.5 24.5q12 0 39.5 -4t44.5 -4q100 0 100 58q0 61 -98 61q-25 0 -44.5 19.5t-12.5 52.5l8 86q-195 25 -310 149 q-121 131 -120 338z" />
<glyph unicode="&#xe8;" horiz-adv-x="1075" d="M70 483q0 209 143 353q131 127 346 127q217 0 340 -123q119 -119 119 -289q0 -78 -42 -122t-118 -44h-440q14 -66 55 -102q51 -47 139 -47q66 0 121 18q16 6 42 16.5t44.5 16.5t36.5 6q53 0 88 -38t35 -93q0 -96 -135 -146q-102 -37 -254 -36q-238 0 -375 131 q-145 135 -145 372zM385 1468q0 49 38.5 85t90.5 36q78 0 114 -80l86 -182q21 -41 21 -74q0 -43 -33 -73.5t-78 -30.5q-68 0 -104 68l-105 167q-31 51 -30 84zM418 584h278q-6 53 -32 84q-35 41 -103 41q-70 0 -104 -37q-29 -33 -39 -88z" />
<glyph unicode="&#xe9;" horiz-adv-x="1075" d="M70 483q0 209 143 353q131 127 346 127q217 0 340 -123q119 -119 119 -289q0 -78 -42 -122t-118 -44h-440q14 -66 55 -102q51 -47 139 -47q66 0 121 18q16 6 42 16.5t44.5 16.5t36.5 6q53 0 88 -38t35 -93q0 -96 -135 -146q-102 -37 -254 -36q-238 0 -375 131 q-145 135 -145 372zM361 1253q0 33 20 74l86 182q37 80 115 80q51 0 90 -35.5t39 -85.5q0 -33 -31 -84l-104 -167q-41 -68 -105 -68q-45 0 -77.5 30.5t-32.5 73.5zM418 584h278q-6 53 -32 84q-35 41 -103 41q-70 0 -104 -37q-29 -33 -39 -88z" />
<glyph unicode="&#xea;" horiz-adv-x="1075" d="M70 483q0 209 143 353q131 127 346 127q217 0 340 -123q119 -119 119 -289q0 -78 -42 -122t-118 -44h-440q14 -66 55 -102q51 -47 139 -47q66 0 121 18q16 6 42 16.5t44.5 16.5t36.5 6q53 0 88 -38t35 -93q0 -96 -135 -146q-102 -37 -254 -36q-238 0 -375 131 q-145 135 -145 372zM195 1272q0 49 53 96l201 180q45 37 88 37t88 -37l201 -180q53 -47 53 -96q0 -51 -34 -84t-81 -33q-43 0 -80 31l-147 133l-148 -133q-37 -31 -80 -31q-47 0 -80.5 33t-33.5 84zM418 584h278q-6 53 -32 84q-35 41 -103 41q-70 0 -104 -37 q-29 -33 -39 -88z" />
<glyph unicode="&#xeb;" horiz-adv-x="1075" d="M70 483q0 209 143 353q131 127 346 127q217 0 340 -123q119 -119 119 -289q0 -78 -42 -122t-118 -44h-440q14 -66 55 -102q51 -47 139 -47q66 0 121 18q16 6 42 16.5t44.5 16.5t36.5 6q53 0 88 -38t35 -93q0 -96 -135 -146q-102 -37 -254 -36q-238 0 -375 131 q-145 135 -145 372zM88 1347.5q0 77.5 55.5 133t132.5 55.5q80 0 135.5 -55.5t55.5 -133t-55.5 -134t-135.5 -56.5q-78 0 -133 56.5t-55 134zM418 584h278q-6 53 -32 84q-35 41 -103 41q-70 0 -104 -37q-29 -33 -39 -88zM608 1347.5q0 77.5 55.5 133t133 55.5t133 -55.5 t55.5 -133t-55.5 -134t-133 -56.5t-133 56.5t-55.5 134z" />
<glyph unicode="&#xec;" horiz-adv-x="581" d="M117 1468q0 49 38.5 85t90.5 36q78 0 114 -80l86 -182q21 -41 21 -74q0 -43 -33 -73.5t-78 -30.5q-68 0 -104 68l-105 167q-31 51 -30 84zM125 139v664q0 66 48 113t117.5 47t118 -47.5t48.5 -112.5v-664q0 -66 -49.5 -112.5t-116.5 -46.5q-70 0 -118 47t-48 112z" />
<glyph unicode="&#xed;" horiz-adv-x="581" d="M115 1253q0 33 20 74l86 182q37 80 115 80q51 0 90 -35.5t39 -85.5q0 -33 -31 -84l-104 -167q-41 -68 -105 -68q-45 0 -77.5 30.5t-32.5 73.5zM125 139v664q0 66 48 113t117.5 47t118 -47.5t48.5 -112.5v-664q0 -66 -49.5 -112.5t-116.5 -46.5q-70 0 -118 47t-48 112z " />
<glyph unicode="&#xee;" horiz-adv-x="581" d="M-51 1272q0 49 53 96l201 180q45 37 88 37t88 -37l201 -180q53 -47 53 -96q0 -51 -34 -84t-81 -33q-43 0 -80 31l-147 133l-148 -133q-37 -31 -80 -31q-47 0 -80.5 33t-33.5 84zM125 139v664q0 66 48 113t117.5 47t118 -47.5t48.5 -112.5v-664q0 -66 -49.5 -112.5 t-116.5 -46.5q-70 0 -118 47t-48 112z" />
<glyph unicode="&#xef;" horiz-adv-x="581" d="M-158 1347.5q0 77.5 55.5 133t133.5 55.5q80 0 135 -55.5t55 -133t-55 -134t-135 -56.5q-78 0 -133.5 56.5t-55.5 134zM125 139v664q0 66 48 113t117.5 47t118 -47.5t48.5 -112.5v-664q0 -66 -49.5 -112.5t-116.5 -46.5q-70 0 -118 47t-48 112zM362 1347.5 q0 77.5 55.5 133t133.5 55.5t133 -55.5t55 -133t-55 -134t-133 -56.5t-133.5 56.5t-55.5 134z" />
<glyph unicode="&#xf0;" horiz-adv-x="1069" d="M70 430q0 184 120 301q123 121 312 121q43 0 69 -8q-43 66 -133 147l-82 -63q-33 -23 -67 -23q-45 0 -78 34t-33 79q0 55 43 86l43 31q-31 25 -47 51q-20 33 -20 71q0 66 44 113t109 47q43 0 90 -31q29 -18 76 -61l92 70q29 23 66 22q47 0 78.5 -31.5t31.5 -80.5 q0 -55 -43 -86l-57 -41q315 -328 315 -713q0 -233 -132 -359t-332 -126q-184 0 -310 102q-156 127 -155 348zM377 430q0 -82 43 -127q41 -45 115 -45q155 0 155 207q0 51 -10 113q-47 20 -125 20q-80 0 -131 -55q-47 -47 -47 -113z" />
<glyph unicode="&#xf1;" horiz-adv-x="1202" d="M125 139v664q0 66 48 113t118 47q51 0 93 -29t60 -74q39 39 97 66q78 37 168 37q176 0 278 -95q106 -100 107 -288v-441q0 -66 -49.5 -112.5t-116.5 -46.5q-70 0 -118 46.5t-48 112.5v367q0 106 -31 145q-33 39 -96 39q-94 0 -139 -76q-39 -59 -39 -165v-310 q0 -66 -49.5 -112.5t-116.5 -46.5q-70 0 -118 47t-48 112zM207 1321q0 78 51 135q72 84 174 84q86 0 166 -55q6 -4 31.5 -22.5t34.5 -24.5t27.5 -13.5t35.5 -7.5q18 0 34.5 12.5t19.5 16.5t19 31q31 49 86 49q47 0 74 -32t27 -81q0 -78 -51 -135q-72 -84 -174 -84 q-86 0 -166 55q-6 4 -32 22.5t-35 25t-27.5 13.5t-34.5 7q-18 0 -35 -12.5t-20 -16.5t-19 -31q-31 -49 -86 -49q-47 0 -73.5 32t-26.5 81z" />
<glyph unicode="&#xf2;" horiz-adv-x="1171" d="M70 471.5q0 233.5 161 368.5q141 123 354.5 123t354.5 -123q162 -135 162 -368.5t-162 -369.5q-141 -123 -354 -122.5t-355 122.5q-161 136 -161 369.5zM397 471q0 -102 60 -168q51 -55 129 -55t129 55q59 66 59 168t-59 168q-51 55 -129 55t-129 -55q-60 -66 -60 -168z M410 1468q0 49 38.5 85t90.5 36q78 0 114 -80l86 -182q21 -41 21 -74q0 -43 -33 -73.5t-78 -30.5q-68 0 -104 68l-105 167q-31 51 -30 84z" />
<glyph unicode="&#xf3;" horiz-adv-x="1171" d="M70 471.5q0 233.5 161 368.5q141 123 354.5 123t354.5 -123q162 -135 162 -368.5t-162 -369.5q-141 -123 -354 -122.5t-355 122.5q-161 136 -161 369.5zM397 471q0 -102 60 -168q51 -55 129 -55t129 55q59 66 59 168t-59 168q-51 55 -129 55t-129 -55q-60 -66 -60 -168z M410 1253q0 33 20 74l86 182q37 80 115 80q51 0 90 -35.5t39 -85.5q0 -33 -31 -84l-104 -167q-41 -68 -105 -68q-45 0 -77.5 30.5t-32.5 73.5z" />
<glyph unicode="&#xf4;" horiz-adv-x="1171" d="M70 471.5q0 233.5 161 368.5q141 123 354.5 123t354.5 -123q162 -135 162 -368.5t-162 -369.5q-141 -123 -354 -122.5t-355 122.5q-161 136 -161 369.5zM244 1272q0 49 53 96l201 180q45 37 88 37t88 -37l201 -180q53 -47 53 -96q0 -51 -34 -84t-81 -33q-43 0 -80 31 l-147 133l-148 -133q-37 -31 -80 -31q-47 0 -80.5 33t-33.5 84zM397 471q0 -102 60 -168q51 -55 129 -55t129 55q59 66 59 168t-59 168q-51 55 -129 55t-129 -55q-60 -66 -60 -168z" />
<glyph unicode="&#xf5;" horiz-adv-x="1171" d="M70 471.5q0 233.5 161 368.5q141 123 354.5 123t354.5 -123q162 -135 162 -368.5t-162 -369.5q-141 -123 -354 -122.5t-355 122.5q-161 136 -161 369.5zM193 1321q0 78 51 135q72 84 174 84q86 0 166 -55q6 -4 31.5 -22.5t34.5 -24.5t27.5 -13.5t35.5 -7.5 q18 0 34.5 12.5t19.5 16.5t19 31q31 49 86 49q47 0 74 -32t27 -81q0 -78 -51 -135q-72 -84 -174 -84q-86 0 -166 55q-6 4 -32 22.5t-35 25t-27.5 13.5t-34.5 7q-18 0 -35 -12.5t-20 -16.5t-19 -31q-31 -49 -86 -49q-47 0 -73.5 32t-26.5 81zM397 471q0 -102 60 -168 q51 -55 129 -55t129 55q59 66 59 168t-59 168q-51 55 -129 55t-129 -55q-60 -66 -60 -168z" />
<glyph unicode="&#xf6;" horiz-adv-x="1171" d="M70 471.5q0 233.5 161 368.5q141 123 354.5 123t354.5 -123q162 -135 162 -368.5t-162 -369.5q-141 -123 -354 -122.5t-355 122.5q-161 136 -161 369.5zM137 1347.5q0 77.5 55.5 133t133.5 55.5q80 0 135 -55.5t55 -133t-55 -134t-135 -56.5q-78 0 -133.5 56.5t-55.5 134 zM397 471q0 -102 60 -168q51 -55 129 -55t129 55q59 66 59 168t-59 168q-51 55 -129 55t-129 -55q-60 -66 -60 -168zM657 1347.5q0 77.5 55.5 133t133.5 55.5t133 -55.5t55 -133t-55 -134t-133 -56.5t-133.5 56.5t-55.5 134z" />
<glyph unicode="&#xf7;" horiz-adv-x="1277" d="M72 723q0 61 45 108.5t106 47.5h834q61 0 105 -47.5t44 -108.5q0 -63 -44 -109.5t-105 -46.5h-834q-63 0 -107 45t-44 111zM442 260q0 82 57.5 139.5t139.5 57.5t139.5 -57.5t57.5 -139.5t-57.5 -139.5t-139.5 -57.5t-139.5 57.5t-57.5 139.5zM442 1186q0 82 57.5 139 t139.5 57t139.5 -57t57.5 -139t-57.5 -139.5t-139.5 -57.5t-139.5 57.5t-57.5 139.5z" />
<glyph unicode="&#xf8;" horiz-adv-x="1171" d="M152 59q0 27 18 50l713 827q20 27 57 27q35 0 58.5 -24t23.5 -58q0 -29 -18 -50l-713 -827q-20 -25 -58 -24q-35 0 -58 22.5t-23 56.5z" />
<glyph unicode="&#xf9;" horiz-adv-x="1183" d="M109 412v391q0 66 48 113t117.5 47t117.5 -47.5t48 -112.5v-381q0 -59 21 -100q37 -72 131 -72t131 72q20 41 20 100v381q0 66 48.5 113t118 47t117.5 -47.5t48 -112.5v-391q0 -178 -90 -285q-123 -147 -393 -147t-393 147q-90 107 -90 285zM418 1468q0 49 38.5 85 t90.5 36q78 0 114 -80l86 -182q21 -41 21 -74q0 -43 -33 -73.5t-78 -30.5q-68 0 -104 68l-105 167q-31 51 -30 84z" />
<glyph unicode="&#xfa;" horiz-adv-x="1183" d="M109 412v391q0 66 48 113t117.5 47t117.5 -47.5t48 -112.5v-381q0 -59 21 -100q37 -72 131 -72t131 72q20 41 20 100v381q0 66 48.5 113t118 47t117.5 -47.5t48 -112.5v-391q0 -178 -90 -285q-123 -147 -393 -147t-393 147q-90 107 -90 285zM418 1253q0 33 20 74l86 182 q37 80 115 80q51 0 90 -35.5t39 -85.5q0 -33 -31 -84l-104 -167q-41 -68 -105 -68q-45 0 -77.5 30.5t-32.5 73.5z" />
<glyph unicode="&#xfb;" horiz-adv-x="1183" d="M109 412v391q0 66 48 113t117.5 47t117.5 -47.5t48 -112.5v-381q0 -59 21 -100q37 -72 131 -72t131 72q20 41 20 100v381q0 66 48.5 113t118 47t117.5 -47.5t48 -112.5v-391q0 -178 -90 -285q-123 -147 -393 -147t-393 147q-90 107 -90 285zM250 1272q0 49 53 96l201 180 q45 37 88 37t88 -37l201 -180q53 -47 53 -96q0 -51 -34 -84t-81 -33q-43 0 -80 31l-147 133l-148 -133q-37 -31 -80 -31q-47 0 -80.5 33t-33.5 84z" />
<glyph unicode="&#xfc;" horiz-adv-x="1183" d="M109 412v391q0 66 48 113t117.5 47t117.5 -47.5t48 -112.5v-381q0 -59 21 -100q37 -72 131 -72t131 72q20 41 20 100v381q0 66 48.5 113t118 47t117.5 -47.5t48 -112.5v-391q0 -178 -90 -285q-123 -147 -393 -147t-393 147q-90 107 -90 285zM143 1347.5q0 77.5 55.5 133 t133.5 55.5q80 0 135 -55.5t55 -133t-55 -134t-135 -56.5q-78 0 -133.5 56.5t-55.5 134zM663 1347.5q0 77.5 55.5 133t133.5 55.5t133 -55.5t55 -133t-55 -134t-133 -56.5t-133.5 56.5t-55.5 134z" />
<glyph unicode="&#xfd;" horiz-adv-x="1073" d="M20 780q0 76 53.5 130.5t131.5 54.5q70 0 112.5 -37t61.5 -82l184 -486l129 453q45 152 180 152q76 0 128.5 -52.5t52.5 -128.5q0 -37 -31 -118l-264 -719q-84 -225 -235.5 -327.5t-311.5 -102.5q-66 0 -112 46t-46 111.5t46 111.5t112 46q137 0 190 98l-342 729 q-39 88 -39 121zM365 1253q0 33 20 74l86 182q37 80 115 80q51 0 90 -35.5t39 -85.5q0 -33 -31 -84l-104 -167q-41 -68 -105 -68q-45 0 -77.5 30.5t-32.5 73.5z" />
<glyph unicode="&#xfe;" horiz-adv-x="1148" d="M125 -340v1589q0 68 49 115t117 47q70 0 118 -47t48 -115v-288q18 2 61 2q289 0 436 -154q125 -129 125 -340q0 -205 -108 -330q-139 -160 -408 -159q-74 0 -106 4v-324q0 -66 -49.5 -113t-117 -47t-116.5 47t-49 113zM457 256q27 -6 71 -6q104 0 158 43q63 51 64 176 q0 100 -48 160q-53 66 -149 65q-53 0 -96 -6v-432z" />
<glyph unicode="&#xff;" horiz-adv-x="1073" d="M20 780q0 76 53.5 130.5t131.5 54.5q70 0 112.5 -37t61.5 -82l184 -486l129 453q45 152 180 152q76 0 128.5 -52.5t52.5 -128.5q0 -37 -31 -118l-264 -719q-84 -225 -235.5 -327.5t-311.5 -102.5q-66 0 -112 46t-46 111.5t46 111.5t112 46q137 0 190 98l-342 729 q-39 88 -39 121zM92 1347.5q0 77.5 55.5 133t133.5 55.5q80 0 135 -55.5t55 -133t-55 -134t-135 -56.5q-78 0 -133.5 56.5t-55.5 134zM612 1347.5q0 77.5 55.5 133t133.5 55.5t133 -55.5t55 -133t-55 -134t-133 -56.5t-133.5 56.5t-55.5 134z" />
<glyph unicode="&#x152;" horiz-adv-x="2390" d="M76 694q0 317 222 518t536 201q223 0 401 -106q51 88 158 88h782q63 0 109.5 -48.5t46.5 -111.5q0 -66 -46.5 -113t-109.5 -47h-602v-213h493q63 0 109.5 -48t46.5 -112q0 -66 -46 -112.5t-110 -46.5h-493v-224h602q63 0 109.5 -48t46.5 -111q0 -66 -46.5 -113 t-109.5 -47h-782q-102 0 -156 84q-184 -104 -403 -104q-313 0 -535.5 199.5t-222.5 514.5zM461 694.5q0 -155.5 108.5 -267.5t264.5 -112q154 0 262 112t108 267.5t-108.5 268t-262 112.5t-263 -112.5t-109.5 -268z" />
<glyph unicode="&#x153;" horiz-adv-x="1779" d="M70 471.5q0 233.5 161 368.5q141 123 355 123q205 0 344 -115q131 115 334 115q217 0 340 -123q119 -119 118 -289q0 -78 -42 -122t-117 -44h-441q14 -66 56 -102q51 -47 139 -47q66 0 121 18q16 6 41.5 16.5t44 16.5t37.5 6q53 0 87.5 -38t34.5 -93q0 -96 -135 -146 q-102 -37 -254 -36q-227 0 -360 116q-141 -117 -348 -116q-213 0 -355 122q-161 136 -161 369.5zM397 471q0 -102 60 -168q51 -55 129 -55t129 55q59 66 59 168t-59 168q-51 55 -129 55t-129 -55q-60 -66 -60 -168zM1122 584h279q-6 53 -33 84q-35 41 -102 41 q-70 0 -105 -37q-29 -33 -39 -88z" />
<glyph unicode="&#x178;" horiz-adv-x="1208" d="M20 1241q0 74 51.5 123t127.5 49q100 0 149 -78l252 -409l260 411q51 76 150 76q76 0 127 -49t51 -125q0 -66 -33 -113l-373 -563v-409q0 -72 -53 -123t-127 -51t-127 51t-53 123v411l-369 563q-33 53 -33 113zM155 1757.5q0 77.5 55.5 133t133.5 55.5q80 0 135 -55.5 t55 -133t-55 -134t-135 -56.5q-78 0 -133.5 56.5t-55.5 134zM675 1757.5q0 77.5 55.5 133t133.5 55.5t133 -55.5t55 -133t-55 -134t-133 -56.5t-133.5 56.5t-55.5 134z" />
<glyph unicode="&#x2c6;" horiz-adv-x="1003" d="M160 1272q0 49 53 96l201 180q45 37 88 37t88 -37l201 -180q53 -47 53 -96q0 -51 -34 -84t-81 -33q-43 0 -80 31l-147 133l-148 -133q-37 -31 -80 -31q-47 0 -80.5 33t-33.5 84z" />
<glyph unicode="&#x2dc;" horiz-adv-x="1003" d="M109 1321q0 78 51 135q72 84 174 84q86 0 166 -55q6 -4 31.5 -22.5t34.5 -24.5t27.5 -13.5t35.5 -7.5q18 0 34.5 12.5t19.5 16.5t19 31q31 49 86 49q47 0 74 -32t27 -81q0 -78 -51 -135q-72 -84 -174 -84q-86 0 -166 55q-6 4 -32 22.5t-35 25t-27.5 13.5t-34.5 7 q-18 0 -35 -12.5t-20 -16.5t-19 -31q-31 -49 -86 -49q-47 0 -73.5 32t-26.5 81z" />
<glyph unicode="&#x2000;" horiz-adv-x="1004" />
<glyph unicode="&#x2001;" horiz-adv-x="2009" />
<glyph unicode="&#x2002;" horiz-adv-x="1004" />
<glyph unicode="&#x2003;" horiz-adv-x="2009" />
<glyph unicode="&#x2004;" horiz-adv-x="669" />
<glyph unicode="&#x2005;" horiz-adv-x="502" />
<glyph unicode="&#x2006;" horiz-adv-x="334" />
<glyph unicode="&#x2007;" horiz-adv-x="334" />
<glyph unicode="&#x2008;" horiz-adv-x="251" />
<glyph unicode="&#x2009;" horiz-adv-x="401" />
<glyph unicode="&#x200a;" horiz-adv-x="111" />
<glyph unicode="&#x2010;" horiz-adv-x="1089" d="M174 565q0 61 45 108.5t107 47.5h440q61 0 105 -47t44 -109q0 -63 -44 -109t-105 -46h-440q-63 0 -107.5 45t-44.5 110z" />
<glyph unicode="&#x2011;" horiz-adv-x="1089" d="M174 565q0 61 45 108.5t107 47.5h440q61 0 105 -47t44 -109q0 -63 -44 -109t-105 -46h-440q-63 0 -107.5 45t-44.5 110z" />
<glyph unicode="&#x2012;" horiz-adv-x="1089" d="M174 565q0 61 45 108.5t107 47.5h440q61 0 105 -47t44 -109q0 -63 -44 -109t-105 -46h-440q-63 0 -107.5 45t-44.5 110z" />
<glyph unicode="&#x2013;" horiz-adv-x="1495" d="M174 516q0 66 46.5 114t109.5 48h833q63 0 110.5 -48t47.5 -114q0 -68 -46 -115t-112 -47h-833q-66 0 -111 47.5t-45 114.5z" />
<glyph unicode="&#x2014;" horiz-adv-x="2641" d="M174 516q0 66 46.5 114t109.5 48h1980q63 0 110.5 -48t47.5 -114q0 -68 -46 -115t-112 -47h-1980q-66 0 -111 47.5t-45 114.5z" />
<glyph unicode="&#x2018;" horiz-adv-x="645" d="M102 995q0 92 42 175t102.5 134.5t122 81t104.5 29.5q27 0 44.5 -17t17.5 -42q0 -39 -72 -94.5t-72 -110.5q0 -31 23.5 -54.5t52.5 -38t52.5 -52t23.5 -95.5q0 -78 -52.5 -133t-150.5 -55q-111 0 -174.5 73.5t-63.5 198.5z" />
<glyph unicode="&#x2019;" horiz-adv-x="645" d="M102 1227q0 78 52.5 133t150.5 55q111 0 174.5 -73.5t63.5 -198.5q0 -92 -42 -175t-102.5 -134.5t-122 -81t-104.5 -29.5q-27 0 -44 17t-17 42q0 39 71.5 94.5t71.5 110.5q0 31 -23.5 54.5t-52 38t-52.5 52t-24 95.5z" />
<glyph unicode="&#x201a;" horiz-adv-x="636" d="M94 170q0 78 52.5 133t150.5 55q111 0 174.5 -73.5t63.5 -198.5q0 -92 -42 -175t-102.5 -134.5t-122 -81t-104.5 -29.5q-27 0 -44 17t-17 42q0 39 71.5 94.5t71.5 110.5q0 31 -23.5 54.5t-52 38t-52.5 52t-24 95.5z" />
<glyph unicode="&#x201c;" horiz-adv-x="1177" d="M102 995q0 92 42 175t102.5 134.5t122 81t104.5 29.5q27 0 44.5 -17t17.5 -42q0 -39 -72 -94.5t-72 -110.5q0 -31 23.5 -54.5t52.5 -38t52.5 -52t23.5 -95.5q0 -78 -52.5 -133t-150.5 -55q-111 0 -174.5 73.5t-63.5 198.5zM634 995q0 92 42 175t102.5 134.5t122 81 t104.5 29.5q27 0 44.5 -17t17.5 -42q0 -39 -72 -94.5t-72 -110.5q0 -31 23.5 -54.5t52.5 -38t52.5 -52t23.5 -95.5q0 -78 -52.5 -133t-150.5 -55q-111 0 -174.5 73.5t-63.5 198.5z" />
<glyph unicode="&#x201d;" horiz-adv-x="1177" d="M102 1227q0 78 52.5 133t150.5 55q111 0 174.5 -73.5t63.5 -198.5q0 -92 -42 -175t-102.5 -134.5t-122 -81t-104.5 -29.5q-27 0 -44 17t-17 42q0 39 71.5 94.5t71.5 110.5q0 31 -23.5 54.5t-52 38t-52.5 52t-24 95.5zM635 1227q0 78 52 133t151 55q111 0 174 -73.5 t63 -198.5q0 -92 -42 -175t-102.5 -134.5t-121.5 -81t-104 -29.5q-27 0 -44.5 17t-17.5 42q0 39 71.5 94.5t71.5 110.5q0 31 -23.5 54.5t-52 38t-52 52t-23.5 95.5z" />
<glyph unicode="&#x201e;" horiz-adv-x="1169" d="M94 170q0 78 52.5 133t150.5 55q111 0 174.5 -73.5t63.5 -198.5q0 -92 -42 -175t-102.5 -134.5t-122 -81t-104.5 -29.5q-27 0 -44 17t-17 42q0 39 71.5 94.5t71.5 110.5q0 31 -23.5 54.5t-52 38t-52.5 52t-24 95.5zM627 170q0 78 52 133t151 55q111 0 174 -73.5 t63 -198.5q0 -92 -42 -175t-102.5 -134.5t-121.5 -81t-104 -29.5q-27 0 -44.5 17t-17.5 42q0 39 71.5 94.5t71.5 110.5q0 31 -23.5 54.5t-52 38t-52 52t-23.5 95.5z" />
<glyph unicode="&#x2022;" horiz-adv-x="1044" d="M109 698q0 170 121.5 292t291.5 122t292 -122t122 -292t-122 -291.5t-292 -121.5t-291.5 121.5t-121.5 291.5z" />
<glyph unicode="&#x2026;" horiz-adv-x="2134" d="M94 178q0 82 57.5 139.5t139.5 57.5t139 -57.5t57 -139.5t-57 -139t-139 -57t-139.5 57t-57.5 139zM866 178q0 82 57.5 139.5t139.5 57.5t139 -57.5t57 -139.5t-57 -139t-139 -57t-139.5 57t-57.5 139zM1638 178q0 82 57.5 139.5t139.5 57.5t139 -57.5t57 -139.5 t-57 -139t-139 -57t-139.5 57t-57.5 139z" />
<glyph unicode="&#x202f;" horiz-adv-x="401" />
<glyph unicode="&#x2039;" horiz-adv-x="786" d="M82 460.5q0 55.5 45 104.5l319 332q43 45 109 45q61 0 105.5 -43t44.5 -104.5t-41 -106.5l-220 -227l220 -228q41 -45 41 -106q0 -63 -45.5 -105t-106.5 -42q-63 0 -107 45l-319 331q-45 49 -45 104.5z" />
<glyph unicode="&#x203a;" horiz-adv-x="786" d="M82 127q0 61 41 106l219 228l-219 227q-41 45 -41 106.5t44 104.5t105 43q66 0 109 -45l319 -332q45 -49 45.5 -104t-45.5 -105l-319 -331q-44 -45 -107 -45q-61 0 -106 41.5t-45 105.5z" />
<glyph unicode="&#x205f;" horiz-adv-x="502" />
<glyph unicode="&#x20ac;" d="M-39 551q0 37 25.5 64.5t60.5 27.5h39q-2 18 -2 57q0 31 2 45h-39q-35 0 -60.5 26t-25.5 62.5t25.5 64.5t60.5 28h70q74 227 273.5 358t428.5 131q164 0 293 -45t129 -160q0 -74 -48 -122t-116 -48q-18 0 -131 35q-55 16 -137 17q-84 0 -167 -43t-134 -123h434 q35 0 61.5 -28t26.5 -64.5t-26.5 -62.5t-61.5 -26h-493q-2 -14 -3 -45q0 -39 3 -57h391q35 0 61.5 -27.5t26.5 -64.5t-27 -62.5t-61 -25.5h-328q51 -76 131 -115t166 -39q82 0 143 17q23 6 59 16t59.5 16.5t41.5 6.5q68 0 111 -46.5t43 -121.5q0 -113 -133 -162 q-143 -53 -320 -53q-252 0 -440.5 125.5t-255.5 355.5h-70q-35 0 -60.5 25.5t-25.5 62.5z" />
<glyph unicode="&#x2122;" horiz-adv-x="1736" d="M72 1368q0 39 26.5 65.5t61.5 26.5h467q37 0 62.5 -26.5t25.5 -65.5q0 -37 -25.5 -63.5t-62.5 -26.5h-133v-465q0 -39 -30 -67.5t-71 -28.5t-69.5 27.5t-28.5 68.5v465h-135q-35 0 -61.5 27.5t-26.5 62.5zM807 811v563q0 41 27.5 67.5t76.5 26.5q51 0 76 -18t53 -66 l146 -249l143 249q29 47 53.5 65.5t75.5 18.5t79 -26.5t28 -67.5v-563q0 -39 -29 -66.5t-68 -27.5q-41 0 -69.5 27.5t-28.5 66.5v291l-100 -176q-29 -54 -84 -54q-57 0 -86 54l-101 176v-291q0 -39 -28.5 -66.5t-67.5 -27.5q-41 0 -68.5 27.5t-27.5 66.5z" />
<glyph unicode="&#x25fc;" horiz-adv-x="962" d="M0 0v963h963v-963h-963z" />
</font>
</defs>
</svg>
